<?xml version="1.0" standalone="no"?>
<!DOCTYPE svg PUBLIC "-//W3C//DTD SVG 1.1//EN" "http://www.w3.org/Graphics/SVG/1.1/DTD/svg11.dtd" >
<svg xmlns="http://www.w3.org/2000/svg" xmlns:xlink="http://www.w3.org/1999/xlink" version="1.1">
<metadata>
Created by FontForge 20170731 at Thu Nov 21 07:34:38 2019
 By Aleksey,,,
Copyright 2015 The Courier Prime Project Authors (https://github.com/quoteunquoteapps/CourierPrime).
</metadata>
<defs>
<font id="CourierPrime-BoldItalic" horiz-adv-x="1228" >
  <font-face 
    font-family="Courier Prime"
    font-weight="700"
    font-style="italic"
    font-stretch="normal"
    units-per-em="2048"
    panose-1="0 0 8 9 0 0 0 0 0 0"
    ascent="1638"
    descent="-410"
    x-height="924"
    cap-height="1187"
    bbox="-941 -545 1556 1827"
    underline-thickness="130"
    underline-position="-350"
    slope="-10"
    unicode-range="U+000D-FB02"
  />
<missing-glyph 
d="M1217 1311.5q13 -10.5 13 -34.5q0 -7 -2 -23l-261 -1469q-6 -37 -23 -52.5t-51 -15.5h-821q-28 0 -41 10.5t-13 34.5q0 7 2 23l261 1469q6 37 23 52.5t51 15.5h821q28 0 41 -10.5zM868 -181l248 1401h-736l-248 -1401h736zM440 923l-2 8q0 14 17 24t38 10q18 0 29.5 -5.5
t14.5 -15.5l106 -335l225 335q7 10 20.5 15.5t31.5 5.5q19 0 35 -8.5t16 -20.5q0 -5 -5 -13l-290 -412l146 -406l2 -8q0 -14 -17 -23t-39 -9q-37 0 -43 19l-107 341l-224 -341q-13 -19 -51 -19q-20 0 -36 7.5t-16 19.5q0 5 5 13l290 419z" />
    <glyph glyph-name="fi" unicode="fi" 
d="M1277 82q0 -23 -14 -37.5t-44 -28.5q-86 -38 -181 -38q-87 0 -152 31.5t-101 92t-36 144.5q0 71 9 122l47 301h-297l-124 -714q-32 -185 -129 -277.5t-267 -92.5q-66 0 -128 17t-110 49q-16 10 -23.5 21t-7.5 25q0 27 34 86q24 43 41 60.5t35 17.5q15 0 38 -13
q28 -15 63.5 -25.5t58.5 -10.5q59 0 96 37.5t51 118.5l122 701h-183q-26 0 -38 11.5t-12 39.5q0 21 6 52q11 59 29 80.5t53 21.5h183l11 63q33 189 132.5 284.5t271.5 95.5q149 0 294 -57q47 -18 47 -65q0 -26 -15 -68q-16 -44 -36 -62.5t-44 -18.5q-12 0 -29 5
q-62 20 -113.5 29.5t-101.5 9.5q-63 0 -104 -40.5t-55 -125.5l-8 -50h487q28 0 41 -10t13 -32q0 -5 -2 -21l-79 -450q-5 -32 -5 -53q0 -103 89 -103q34 0 72 17q14 7 27 7q18 0 33 -16.5t32 -53.5q23 -51 23 -77z" />
    <glyph glyph-name="fl" unicode="fl" 
d="M1288 97q0 -21 -10.5 -36t-31.5 -27q-98 -56 -215 -56q-89 0 -153.5 32.5t-99 93t-34.5 142.5q0 71 9 122l123 701q-77 21 -156 21q-69 0 -112 -42.5t-59 -123.5l-8 -50h142q37 0 51.5 -10t14.5 -40q0 -20 -6 -52q-7 -43 -17.5 -65t-29 -30t-51.5 -8h-142l-124 -714
q-32 -185 -129 -277.5t-267 -92.5q-64 0 -132.5 20.5t-114.5 52.5q-12 8 -17.5 17t-5.5 22q0 27 34 86q24 42 40.5 60t34.5 18q13 0 30 -9q32 -17 67.5 -28.5t64.5 -11.5q59 0 96 37.5t51 118.5l122 701h-133q-26 0 -38 11.5t-12 39.5q0 21 6 52q11 59 29 80.5t53 21.5h133
l11 63q35 187 139 283.5t271 96.5q102 0 198.5 -22.5t170.5 -54.5q56 -24 56 -92q0 -21 -4 -41l-132 -746q-5 -32 -5 -65q0 -43 24.5 -67t60.5 -24q46 0 86 21q17 9 32 9q40 0 72 -72q17 -38 17 -66z" />
    <glyph glyph-name=".notdef" 
d="M1217 1311.5q13 -10.5 13 -34.5q0 -7 -2 -23l-261 -1469q-6 -37 -23 -52.5t-51 -15.5h-821q-28 0 -41 10.5t-13 34.5q0 7 2 23l261 1469q6 37 23 52.5t51 15.5h821q28 0 41 -10.5zM868 -181l248 1401h-736l-248 -1401h736zM440 923l-2 8q0 14 17 24t38 10q18 0 29.5 -5.5
t14.5 -15.5l106 -335l225 335q7 10 20.5 15.5t31.5 5.5q19 0 35 -8.5t16 -20.5q0 -5 -5 -13l-290 -412l146 -406l2 -8q0 -14 -17 -23t-39 -9q-37 0 -43 19l-107 341l-224 -341q-13 -19 -51 -19q-20 0 -36 7.5t-16 19.5q0 5 5 13l290 419z" />
    <glyph glyph-name=".null" horiz-adv-x="0" 
 />
    <glyph glyph-name="nonmarkingreturn" unicode="&#xd;" 
 />
    <glyph glyph-name="space" unicode=" " 
 />
    <glyph glyph-name="exclam" unicode="!" 
d="M918 1240q0 -9 -3 -21l-173 -657q-15 -58 -109 -58t-89 58l59 657q4 50 50 50h230q35 0 35 -29zM725.5 315q36.5 -15 30.5 -48l-38 -214q-6 -34 -42.5 -48.5t-117.5 -14.5q-83 0 -119.5 15t-30.5 48l38 214q6 34 42.5 48.5t117.5 14.5q83 0 119.5 -15z" />
    <glyph glyph-name="quotedbl" unicode="&#x22;" 
d="M650 1240q0 -9 -3 -21l-140 -480q-9 -33 -36.5 -50.5t-78.5 -17.5q-52 0 -72.5 17.5t-18.5 50.5l30 480q3 50 50 50h234q35 0 35 -29zM1190 1240q0 -9 -3 -21l-140 -480q-9 -33 -36.5 -50.5t-78.5 -17.5q-52 0 -72.5 17.5t-18.5 50.5l30 480q3 50 50 50h234q35 0 35 -29z
" />
    <glyph glyph-name="numbersign" unicode="#" 
d="M1249 929q12 -11 12 -41q0 -26 -7 -61q-8 -47 -18.5 -71t-25.5 -32.5t-39 -8.5h-154l-100 -233h123q26 0 38 -11t12 -41q0 -26 -7 -61q-8 -47 -18.5 -71t-25.5 -32.5t-39 -8.5h-180l-106 -246q-14 -33 -83 -33q-48 0 -81 14.5t-33 38.5q0 7 3 14l91 212h-215l-106 -246
q-14 -33 -83 -33q-48 0 -81 14.5t-33 38.5q0 7 3 14l91 212h-99q-26 0 -38 10.5t-12 40.5q0 26 7 61q8 47 19 71t25.5 33t38.5 9h156l100 233h-125q-26 0 -38 10.5t-12 40.5q0 26 7 61q8 47 19 71t25.5 33t38.5 9h182l102 236q14 33 83 33q48 0 81 -14.5t33 -38.5
q0 -6 -3 -14l-87 -202h215l102 236q14 33 83 33q48 0 81 -14.5t33 -38.5q0 -6 -3 -14l-87 -202h97q26 0 38 -11zM708 482l100 233h-215l-100 -233h215z" />
    <glyph glyph-name="dollar" unicode="$" 
d="M834.5 1302q18.5 -10 18.5 -34q0 -5 -2 -19l-35 -195q42 -16 85 -46l3 15q7 34 33.5 48.5t89.5 14.5q57 0 82.5 -11.5t25.5 -38.5q0 -8 -1 -13l-37 -211q-6 -34 -30 -48.5t-73 -14.5q-54 0 -69 21q-54 70 -142 96l-27 -154q65 -10 117.5 -25t93.5 -38q109 -63 109 -184
q0 -90 -42.5 -166.5t-137.5 -126t-244 -54.5l-32 -180q-6 -35 -28 -49t-77 -14q-46 0 -64.5 10t-18.5 34q0 5 2 19l36 207q-45 17 -92 49l-2 -13q-5 -33 -37 -48t-96 -15q-57 0 -82.5 11.5t-25.5 38.5q0 8 1 13l39 223q6 33 32 48t75 15q61 0 78 -28q47 -75 144 -104l30 171
q-60 12 -107 27t-85 38q-109 65 -109 189q0 93 46.5 166t137 115.5t219.5 44.5l29 163q6 35 27.5 49t76.5 14q47 0 65.5 -10zM524 856q-31 -22 -31 -56q0 -24 20 -38.5t62 -22.5l25 145q-45 -6 -76 -28zM780 348.5q34 24.5 34 60.5q0 26 -23.5 43t-76.5 25l-27 -157
q59 4 93 28.5z" />
    <glyph glyph-name="percent" unicode="%" 
d="M544.5 1177.5q57.5 -31.5 88.5 -87.5t31 -128q0 -84 -37.5 -152.5t-106.5 -108.5t-158 -40q-75 0 -132.5 31.5t-88.5 87.5t-31 128q0 84 37.5 152.5t106.5 108.5t158 40q75 0 132.5 -31.5zM1148 1103q14 0 29 -11.5t36 -37.5q33 -42 33 -66q0 -13 -7.5 -24t-23.5 -24
l-1024 -834q-26 -21 -43 -21q-15 0 -30 11.5t-35 37.5q-32 42 -32 67q0 13 7.5 24t22.5 24l1024 834q25 20 43 20zM322 999q-30 -31 -30 -78q0 -36 22.5 -58.5t61.5 -22.5q46 0 76 31t30 78q0 36 -22.5 58.5t-61.5 22.5q-46 0 -76 -31zM1065.5 494.5q57.5 -31.5 88.5 -87.5
t31 -128q0 -84 -37.5 -152.5t-106.5 -108.5t-158 -40q-75 0 -132.5 31.5t-88.5 87.5t-31 128q0 84 37.5 152.5t106.5 108.5t158 40q75 0 132.5 -31.5zM843 316q-30 -31 -30 -78q0 -36 22.5 -58.5t61.5 -22.5q46 0 76 31t30 78q0 36 -22.5 58.5t-61.5 22.5q-46 0 -76 -31z
" />
    <glyph glyph-name="ampersand" unicode="&#x26;" 
d="M877.5 1184q82.5 -25 157.5 -75q18 -12 26.5 -24t8.5 -28q0 -7 -1 -11l-34 -192q-6 -34 -37.5 -48.5t-95.5 -14.5q-55 0 -77 11t-22 36q0 4 2 16l19 107q-64 31 -138 31q-44 0 -78.5 -21.5t-54 -59.5t-19.5 -84q0 -77 67 -161l154 -196q34 58 73 133q20 42 59 42h220
q27 0 39 -10.5t12 -39.5q0 -20 -6 -52q-7 -42 -17.5 -64t-25 -30.5t-38.5 -8.5h-81q-46 -87 -91 -154l64 -81h87q26 0 38 -10.5t12 -39.5q0 -20 -6 -53q-7 -42 -17 -64t-24.5 -30t-38.5 -8h-161q-41 0 -67 33l-51 65q-147 -120 -333 -120q-93 0 -164 37.5t-109.5 103.5
t-38.5 150q0 226 239 366q-48 94 -48 184q0 96 49 185.5t147.5 147t238.5 57.5q79 0 161.5 -25zM340 301q0 -44 27 -70t75 -26q81 0 158 66l-159 203q-101 -76 -101 -173z" />
    <glyph glyph-name="quotesingle" unicode="'" 
d="M920 1240q0 -9 -3 -21l-140 -480q-9 -33 -36.5 -50.5t-78.5 -17.5q-52 0 -72.5 17.5t-18.5 50.5l30 480q3 50 50 50h234q35 0 35 -29z" />
    <glyph glyph-name="parenleft" unicode="(" 
d="M968 1381q26 0 50 -22.5t41 -56.5q22 -44 22 -86t-24 -55q-267 -145 -406 -338t-139 -457q0 -163 70 -291t212 -228q13 -9 13 -30q0 -20 -12 -46t-31 -51q-22 -28 -48 -46t-49 -18q-15 0 -26 7q-103 65 -188 165.5t-136 236t-51 296.5q0 207 77.5 396.5t229 347.5
t370.5 270q14 6 25 6z" />
    <glyph glyph-name="parenright" unicode=")" 
d="M817 1209.5q85 -100.5 136 -236t51 -296.5q0 -207 -77.5 -396.5t-229 -347.5t-370.5 -270q-13 -6 -25 -6q-26 0 -50 22.5t-41 56.5q-22 44 -22 86t24 55q267 145 406 338t139 457q0 163 -70 291t-212 228q-13 9 -13 30q0 20 12 46t31 51q22 28 48 46t49 18q15 0 26 -7
q103 -65 188 -165.5z" />
    <glyph glyph-name="asterisk" unicode="*" 
d="M826.5 1181.5q28.5 -27.5 28.5 -69.5q0 -26 -10 -50l-82 -203l192 105q37 20 68 20q33 0 57.5 -21.5t34.5 -63.5q4 -16 4 -35q0 -49 -34 -80t-89 -36l-212 -19l140 -142q33 -35 33 -78q0 -29 -17 -55t-53 -45q-41 -22 -76 -22q-33 0 -55.5 19t-32.5 54l-58 198l-111 -192
q-19 -34 -47.5 -52.5t-60.5 -18.5q-41 0 -77 30q-43 36 -43 82q0 27 15 53t43 47l175 132l-193 18q-43 4 -68 28t-25 65q0 28 13 61q17 43 48.5 65t68.5 22q35 0 64 -20l160 -108l-11 205q-3 58 31 96t100 38q51 0 79.5 -27.5z" />
    <glyph glyph-name="plus" unicode="+" 
d="M805 1016q22 -10 22 -34q0 -5 -2 -19l-47 -268h269q26 0 38 -11t12 -41q0 -26 -7 -61q-8 -47 -18.5 -71t-25.5 -32.5t-39 -8.5h-269l-47 -269q-4 -24 -15 -37t-36 -19.5t-72 -6.5q-59 0 -81.5 10t-22.5 35q0 4 2 18l47 269h-268q-26 0 -38 10.5t-12 40.5q0 26 7 61
q8 47 19 71t25.5 33t38.5 9h268l47 268q4 24 15 37t36.5 19.5t72.5 6.5q59 0 81 -10z" />
    <glyph glyph-name="comma" unicode="," 
d="M768 346q9 -8 9 -22q0 -16 -11 -33l-325 -537q-29 -48 -115 -48q-36 0 -57 12t-21 35q0 5 4 19l187 542q7 19 22.5 29.5t36.5 10.5h245q16 0 25 -8z" />
    <glyph glyph-name="hyphen" unicode="-" 
d="M1085 684q12 -11 12 -41q0 -26 -7 -61q-8 -47 -18.5 -71t-25.5 -32.5t-39 -8.5h-762q-26 0 -38 10.5t-12 40.5q0 26 7 61q8 47 19 71t25.5 33t38.5 9h762q26 0 38 -11z" />
    <glyph glyph-name="period" unicode="." 
d="M729.5 355q39.5 -15 33.5 -48l-45 -254q-6 -34 -44 -48.5t-124 -14.5q-88 0 -128 15t-34 48l45 254q6 34 44 48.5t124 14.5q89 0 128.5 -15z" />
    <glyph glyph-name="slash" unicode="/" 
d="M1176 1375q47 -24 47 -62q0 -16 -10 -32l-927 -1608q-19 -33 -86 -33q-56 0 -104 24.5t-48 61.5q0 14 9 31l927 1608q19 34 88 34q57 0 104 -24z" />
    <glyph glyph-name="zero" unicode="0" 
d="M957.5 1150q90.5 -59 137.5 -165t47 -245q0 -180 -64 -355.5t-196.5 -291t-326.5 -115.5q-125 0 -215.5 59t-137.5 165t-47 245q0 180 64 355.5t196.5 291t326.5 115.5q125 0 215.5 -59zM551 896.5q-67 -85.5 -99.5 -211.5t-32.5 -246q0 -116 41 -175t120 -59
q99 0 166 85.5t99.5 211.5t32.5 246q0 116 -41 175t-120 59q-99 0 -166 -85.5z" />
    <glyph glyph-name="one" unicode="1" 
d="M1029 194.5q12 -10.5 12 -39.5q0 -20 -6 -53q-7 -42 -17 -64t-24.5 -30t-38.5 -8h-732q-27 0 -39 11t-12 40q0 25 5 51q11 61 29 82t53 21h226l115 651l-208 -108q-18 -9 -33 -9q-42 0 -75 79q-18 42 -18 70q0 40 42 62l480 246q29 16 60 16q24 0 39 -12.5t15 -36.5
q0 -10 -1 -15l-166 -943h256q26 0 38 -10.5z" />
    <glyph glyph-name="two" unicode="2" 
d="M928.5 1170q80.5 -39 122 -108.5t41.5 -160.5q0 -88 -28.5 -157t-82 -129t-146.5 -137l-320 -263h282l17 92q6 35 31.5 49t87.5 14q58 0 85 -12t27 -39q0 -8 -1 -12l-43 -242q-6 -35 -24 -50t-52 -15h-774q-27 0 -39 11t-12 40q0 21 6 52q7 41 17 65.5t25 37.5l502 413
q70 57 108.5 96t58 78t19.5 85q0 53 -34 83.5t-97 30.5q-88 0 -180 -42l-25 -140q-6 -35 -31.5 -49t-87.5 -14q-58 0 -85 12t-27 39q0 8 1 12l44 247q7 41 54 64q177 88 365 88q115 0 195.5 -39z" />
    <glyph glyph-name="three" unicode="3" 
d="M999 1131q98 -78 98 -219q0 -99 -47.5 -177t-141.5 -123q62 -32 96.5 -88.5t34.5 -131.5q0 -106 -51 -200t-164 -154t-290 -60q-214 0 -354 77q-29 15 -29 53q0 32 22 83q19 43 40 63.5t40 20.5q10 0 20 -5q127 -65 267 -65q123 0 178.5 54.5t55.5 131.5q0 55 -37.5 83.5
t-110.5 28.5h-103q-26 0 -38 11.5t-12 41.5q0 21 6 54q11 62 29 85t53 23h76q106 0 154.5 44t48.5 113q0 61 -36 89t-109 28q-74 0 -157 -23l-14 -79q-6 -35 -31.5 -49t-87.5 -14q-58 0 -85 12t-27 39q0 8 1 12l35 197q9 45 61 64q152 58 333 58q178 0 276 -78z" />
    <glyph glyph-name="four" unicode="4" 
d="M971 1192.5q21 -16.5 21 -49.5q0 -6 -2 -24l-96 -544h172q27 0 39 -11t12 -40q0 -20 -6 -52q-7 -42 -17.5 -64t-25 -30t-38.5 -8h-172l-29 -165h142q26 0 38 -10.5t12 -39.5q0 -20 -6 -53q-7 -42 -17 -64t-24.5 -30t-38.5 -8h-562q-27 0 -39 11t-12 40q0 25 5 51
q11 61 29 82t53 21h170l29 165h-430q-27 0 -39 10.5t-12 39.5q0 21 6 52q6 35 15.5 61t20.5 38l573 579q31 31 69 45t90 14q49 0 70 -16.5zM434 575h219l67 292z" />
    <glyph glyph-name="five" unicode="5" 
d="M1098 1175q12 -12 12 -42q0 -21 -6 -54q-11 -62 -29 -84.5t-53 -22.5h-442l-53 -223q52 19 96 28t92 9q107 0 182 -42.5t113 -118t38 -173.5q0 -134 -54.5 -241t-172 -170t-297.5 -63q-93 0 -182.5 23.5t-166.5 65.5q-30 17 -30 54q0 33 23 82q38 85 79 85q10 0 21 -6
q65 -36 135 -56.5t137 -20.5q77 0 131.5 31t81.5 80t27 102q0 69 -38 105t-110 36q-80 0 -174 -36q-24 -9 -42 -13t-37 -4q-62 0 -98.5 14t-36.5 41q0 7 1 11l130 550q8 35 25.5 50t51.5 15h608q26 0 38 -12z" />
    <glyph glyph-name="six" unicode="6" 
d="M1108.5 1181.5q12.5 -27.5 12.5 -85.5q0 -64 -14.5 -96t-38.5 -33q-182 -4 -303 -41t-193.5 -108.5t-110.5 -183.5q63 53 131.5 80t152.5 27q98 0 172.5 -42t115 -117t40.5 -172q0 -112 -59 -211t-168.5 -160t-253.5 -61q-142 0 -235 56.5t-136.5 155.5t-43.5 228
q0 221 99 400t300 285t494 106q26 0 38.5 -27.5zM539.5 503q-51.5 -26 -79.5 -69t-28 -94q0 -60 43 -99.5t120 -39.5q68 0 118.5 27t77 71.5t26.5 96.5q0 64 -41 98.5t-116 34.5q-69 0 -120.5 -26z" />
    <glyph glyph-name="seven" unicode="7" 
d="M1195 1176q12 -11 12 -40q0 -20 -6 -52q-9 -50 -22 -72l-576 -988q-27 -46 -110 -46q-57 0 -103 24.5t-46 61.5q0 16 10 33l516 875h-351l-34 -192q-6 -35 -32 -49t-88 -14q-58 0 -84.5 12t-26.5 39q0 8 1 12l60 342q6 34 24 49.5t53 15.5h764q27 0 39 -11z" />
    <glyph glyph-name="eight" unicode="8" 
d="M944 1168.5q78 -40.5 118 -108.5t40 -150q0 -111 -56.5 -186.5t-152.5 -110.5q74 -34 114.5 -93t40.5 -141q0 -102 -52 -193.5t-166 -149.5t-290 -58q-117 0 -203 38t-132.5 107.5t-46.5 162.5q0 127 66 214.5t191 124.5q-60 32 -92 84t-32 123q0 96 54 182.5
t159.5 140.5t252.5 54q109 0 187 -40.5zM621 967.5q-41 -23.5 -63 -62t-22 -83.5q0 -51 34.5 -80.5t98.5 -29.5q59 0 100 24.5t61.5 62.5t20.5 79q0 52 -35.5 82.5t-97.5 30.5q-56 0 -97 -23.5zM518.5 489.5q-47.5 -28.5 -70.5 -73.5t-23 -95q0 -58 39 -91.5t114 -33.5
q70 0 117 28t69.5 72.5t22.5 94.5q0 59 -38.5 93t-113.5 34q-69 0 -116.5 -28.5z" />
    <glyph glyph-name="nine" unicode="9" 
d="M939 1152.5q93 -56.5 136.5 -155.5t43.5 -228q0 -216 -91.5 -391.5t-285 -283t-485.5 -116.5q-27 -1 -39.5 26.5t-12.5 84.5q0 66 14 97.5t39 33.5q178 9 293 46t184.5 106t109.5 181q-71 -54 -141 -80.5t-153 -26.5q-98 0 -172.5 42t-115 117t-40.5 172q0 112 59 211
t168.5 160t253.5 61q142 0 235 -56.5zM582.5 959q-50.5 -27 -77 -71.5t-26.5 -96.5q0 -64 41 -98.5t116 -34.5q69 0 120.5 26t79.5 69t28 94q0 60 -43 99.5t-120 39.5q-68 0 -118.5 -27z" />
    <glyph glyph-name="colon" unicode=":" 
d="M828.5 919q39.5 -15 33.5 -48l-38 -214q-6 -34 -44 -48.5t-124 -14.5q-88 0 -128 15t-34 48l38 214q6 34 44 48.5t124 14.5q89 0 128.5 -15zM722.5 315q39.5 -15 33.5 -48l-38 -214q-6 -34 -44 -48.5t-124 -14.5q-88 0 -128 15t-34 48l38 214q6 34 44 48.5t124 14.5
q89 0 128.5 -15z" />
    <glyph glyph-name="semicolon" unicode=";" 
d="M828.5 919q39.5 -15 33.5 -48l-38 -214q-6 -34 -44 -48.5t-124 -14.5q-88 0 -128 15t-34 48l38 214q6 34 44 48.5t124 14.5q89 0 128.5 -15zM808 346q9 -8 9 -22q0 -16 -11 -33l-325 -537q-29 -48 -115 -48q-36 0 -57 12t-21 35q0 5 4 19l187 542q7 19 22.5 29.5
t36.5 10.5h245q16 0 25 -8z" />
    <glyph glyph-name="less" unicode="&#x3c;" 
d="M1094 1085q20 0 36.5 -18t33.5 -60q18 -46 18 -74q0 -43 -43 -63l-648 -297l521 -285q31 -17 31 -47q0 -34 -32 -87q-25 -42 -45 -60.5t-40 -18.5q-15 0 -30 9l-714 405q-17 10 -25.5 23t-8.5 35q0 8 4 36q7 41 21 61t42 33l845 399q20 9 34 9z" />
    <glyph glyph-name="equal" unicode="=" 
d="M1125 912.5q12 -11.5 12 -42.5q0 -21 -6 -59q-8 -47 -18.5 -71t-25.5 -32.5t-39 -8.5h-762q-26 0 -38 10.5t-12 40.5q0 26 7 61q8 47 18.5 71t25 33t38.5 9h762q26 0 38 -11.5zM1044.5 455q11.5 -11 11.5 -42q0 -22 -6 -60q-8 -47 -18.5 -71t-25.5 -32.5t-39 -8.5h-762
q-26 0 -38 10.5t-12 40.5q0 26 7 61q8 47 18.5 71t25.5 33t39 9h762q26 0 37.5 -11z" />
    <glyph glyph-name="greater" unicode="&#x3e;" 
d="M1135.5 654q8.5 -13 8.5 -35q0 -8 -4 -36q-7 -41 -21 -61t-42 -33l-845 -399q-19 -9 -34 -9q-20 0 -36.5 18t-33.5 60q-18 47 -18 74q0 43 43 63l648 297l-521 285q-31 17 -31 47q0 34 32 87q25 42 45 60.5t40 18.5q15 0 30 -9l714 -405q17 -10 25.5 -23z" />
    <glyph glyph-name="question" unicode="?" 
d="M929.5 1230.5q83.5 -38.5 126.5 -109t43 -164.5q0 -143 -88 -240t-284 -139l-24 -91q-6 -25 -30.5 -36.5t-79.5 -11.5t-74.5 11.5t-17.5 36.5l17 208q3 44 39 51l113 20q85 15 129 55t44 105q0 58 -35 92t-103 34q-79 0 -158 -30l-15 -92q-5 -35 -31 -49t-88 -14
q-58 0 -85 12t-27 39q0 8 1 12l35 200q8 43 52 61q183 78 340 78q117 0 200.5 -38.5zM681 275q34 -15 28 -48l-31 -174q-6 -34 -40 -48.5t-110 -14.5q-78 0 -112 15t-28 48l31 174q6 34 40 48.5t110 14.5q78 0 112 -15z" />
    <glyph glyph-name="at" unicode="@" 
d="M1008 1020q101 -58 154.5 -160.5t53.5 -232.5q0 -134 -47 -250t-132 -185.5t-195 -69.5q-69 0 -108 38t-44 101q-104 -144 -223 -144q-71 0 -114.5 50t-43.5 136q0 104 59.5 221.5t151.5 196.5t185 79q50 0 77 -31t34 -84l45 69q8 13 34 13q15 0 38 -6q21 -6 33 -15.5
t12 -20.5q0 -3 -2 -9l-127 -312q-18 -45 -18 -74q0 -24 12 -38t33 -14q50 0 93 51.5t68 132t25 162.5q0 140 -82 220.5t-232 80.5q-158 0 -287 -95.5t-202.5 -242.5t-73.5 -292q0 -137 78.5 -216t226.5 -79q142 0 265 40q5 2 13 2q28 0 37 -61q3 -17 3 -29q0 -41 -28 -53
q-58 -23 -140.5 -37.5t-164.5 -14.5q-141 0 -243 54.5t-155 153t-53 230.5q0 190 94.5 374t265 301.5t386.5 117.5q137 0 238 -58zM603 593q-47 -50 -80.5 -120t-33.5 -125q0 -32 14 -49.5t38 -17.5q35 0 82.5 51t81.5 122t34 126q0 63 -52 63q-37 0 -84 -50z" />
    <glyph glyph-name="A" unicode="A" 
d="M894 1171.5q22 -15.5 27 -49.5l129 -917h91q27 0 39 -10.5t12 -39.5q0 -20 -6 -52q-7 -42 -17.5 -64t-25 -30.5t-38.5 -8.5h-424q-27 0 -39 11t-12 40q0 21 6 52q7 42 17.5 64t25 30t38.5 8h90l-20 145h-364l-70 -145h70q27 0 39 -10.5t12 -39.5q0 -20 -6 -52
q-7 -42 -17.5 -64t-25 -30.5t-38.5 -8.5h-404q-27 0 -38.5 11t-11.5 41q0 16 5 51q7 42 17.5 64t25 30t38.5 8h80l390 777h-163q-27 0 -39 11t-12 40q0 21 6 52q7 42 17.5 64t25 30t38.5 8h470q40 0 62 -15.5zM716 982l-199 -427h249l-44 427h-6z" />
    <glyph glyph-name="B" unicode="B" 
d="M1054 1111q95 -76 95 -208q0 -94 -51.5 -165.5t-147.5 -112.5q86 -26 134 -87t48 -154q0 -111 -53.5 -197.5t-164 -136.5t-274.5 -50h-577q-27 0 -39 11t-12 40q0 25 5 51q11 61 29 82t53 21h107l137 777h-107q-27 0 -39 10.5t-12 39.5q0 21 6 52q7 42 17.5 64t25 30.5
t38.5 8.5h501q186 0 281 -76zM546 714h142q105 0 154 41t49 110q0 58 -38 82.5t-120 24.5h-142zM458 215h192q116 0 168.5 45t52.5 116q0 64 -42 93.5t-130 29.5h-192z" />
    <glyph glyph-name="C" unicode="C" 
d="M1226 1198q22 -11 22 -36q0 -4 -2 -16l-68 -384q-6 -34 -39 -48.5t-104 -14.5q-61 0 -85 11t-24 36q0 4 2 16q5 32 5 54q0 77 -45 121.5t-131 44.5q-130 0 -211.5 -82.5t-116.5 -199t-35 -225.5q0 -130 60.5 -200t175.5 -70q86 0 166.5 24t185.5 73q14 7 30 7
q46 0 70 -84q11 -41 11 -66q0 -28 -12 -46t-36 -29q-232 -106 -445 -106q-142 0 -249 60.5t-165 172t-58 260.5q0 181 73 351.5t216 278.5t340 108q90 0 153 -35.5t93 -95.5l13 68q7 34 38 48.5t95 14.5q55 0 77 -11z" />
    <glyph glyph-name="D" unicode="D" 
d="M973 1131q109 -56 167 -161.5t58 -251.5q0 -158 -57.5 -321t-203.5 -280t-393 -117h-491q-27 0 -39 11t-12 40q0 25 5 51q11 61 29 82t53 21h97l137 777h-97q-27 0 -39 10.5t-12 39.5q0 21 6 52q7 42 17.5 64t25 30.5t38.5 8.5h451q151 0 260 -56zM438 215h104
q138 0 225.5 75t126 188t38.5 234q0 129 -64.5 194.5t-192.5 65.5h-104z" />
    <glyph glyph-name="E" unicode="E" 
d="M1216 1176.5q13 -10.5 13 -33.5q0 -5 -2 -21l-53 -302q-6 -34 -37.5 -48.5t-95.5 -14.5q-55 0 -77 11t-22 36q0 4 2 16l27 152h-400l-45 -253h244q26 0 38 -12t12 -42q0 -21 -6 -54q-11 -62 -29 -84.5t-53 -22.5h-244l-51 -289h410l36 202q6 34 38 48.5t99 14.5
q58 0 81.5 -11t23.5 -36q0 -4 -2 -16l-62 -352q-6 -35 -24 -50t-52 -15h-932q-27 0 -39 11t-12 40q0 25 5 51q11 61 29 82t53 21h97l137 777h-97q-27 0 -39 10.5t-12 39.5q0 21 6 52q7 42 17.5 64t25 30.5t38.5 8.5h912q29 0 42 -10.5z" />
    <glyph glyph-name="F" unicode="F" 
d="M1236 1176.5q13 -10.5 13 -33.5q0 -5 -2 -21l-53 -302q-6 -34 -37.5 -48.5t-95.5 -14.5q-55 0 -77 11t-22 36q0 4 2 16l27 152h-390l-54 -305h304q26 0 38 -12t12 -42q0 -21 -6 -54q-11 -62 -29 -84.5t-53 -22.5h-304l-43 -247h217q26 0 38 -10.5t12 -39.5q0 -20 -6 -53
q-7 -42 -17 -64t-24.5 -30t-38.5 -8h-594q-27 0 -39 11t-12 40q0 25 5 51q11 61 29 82t53 21h127l137 777h-127q-27 0 -39 10.5t-12 39.5q0 21 6 52q7 42 17.5 64t25 30.5t38.5 8.5h932q29 0 42 -10.5z" />
    <glyph glyph-name="G" unicode="G" 
d="M1196 1198q22 -11 22 -36q0 -4 -2 -16l-61 -344q-6 -34 -39 -48.5t-104 -14.5q-61 0 -85 11t-24 36q0 4 2 16q4 20 4 42q0 67 -45 102.5t-137 35.5q-130 0 -211.5 -82.5t-116.5 -199t-35 -225.5q0 -130 60.5 -200t175.5 -70q110 0 215 30l29 167h-193q-27 0 -39 10.5
t-12 39.5q0 21 6 52q11 61 29 82t53 21h474q26 0 38 -10.5t12 -39.5q0 -20 -6 -53q-7 -42 -17.5 -64t-25 -30t-38.5 -8h-31l-47 -269q-5 -24 -17.5 -42.5t-30.5 -26.5q-189 -86 -429 -86q-142 0 -249 60.5t-165 172t-58 260.5q0 181 73 351.5t216 278.5t340 108
q90 0 154 -33t94 -90l11 60q6 34 37.5 48.5t95.5 14.5q55 0 77 -11z" />
    <glyph glyph-name="H" unicode="H" 
d="M1293 1176q12 -11 12 -40q0 -20 -6 -52q-7 -42 -17.5 -64t-25 -30t-38.5 -8h-57l-137 -777h57q26 0 38 -10.5t12 -39.5q0 -20 -6 -53q-7 -42 -17 -64t-24.5 -30t-38.5 -8h-374q-27 0 -39 11t-12 40q0 25 5 51q11 61 29 82t53 21h67l52 299h-388l-52 -299h67
q26 0 38 -10.5t12 -39.5q0 -20 -6 -53q-7 -42 -17 -64t-24.5 -30t-38.5 -8h-374q-27 0 -39 11t-12 40q0 25 5 51q11 61 29 82t53 21h57l137 777h-57q-27 0 -39 10.5t-12 39.5q0 21 6 52q7 42 17.5 64t25 30.5t38.5 8.5h374q27 0 39 -11t12 -40q0 -20 -6 -52
q-7 -42 -17.5 -64t-25 -30t-38.5 -8h-67l-47 -263h388l47 263h-67q-27 0 -39 10.5t-12 39.5q0 21 6 52q7 42 17.5 64t25 30.5t38.5 8.5h374q27 0 39 -11z" />
    <glyph glyph-name="I" unicode="I" 
d="M1153 1176q12 -11 12 -40q0 -20 -6 -52q-7 -42 -17.5 -64t-25 -30t-38.5 -8h-236l-137 -777h256q26 0 38 -10.5t12 -39.5q0 -20 -6 -53q-7 -42 -17 -64t-24.5 -30t-38.5 -8h-742q-27 0 -39 11t-12 40q0 25 5 51q11 61 29 82t53 21h236l137 777h-256q-27 0 -39 10.5
t-12 39.5q0 21 6 52q7 42 17.5 64t25 30.5t38.5 8.5h742q27 0 39 -11z" />
    <glyph glyph-name="J" unicode="J" 
d="M1283 1176q12 -11 12 -40q0 -20 -6 -52q-7 -42 -17.5 -64t-25 -30t-38.5 -8h-176l-111 -629q-34 -193 -148.5 -284t-322.5 -91q-116 0 -216.5 41.5t-164.5 115.5q-10 11 -10 30q0 6 2 20l55 314q6 34 39.5 48.5t104.5 14.5q60 0 84 -11t24 -36q0 -4 -2 -16l-44 -255
q63 -39 159 -39q82 0 130.5 43.5t64.5 134.5l106 599h-316q-27 0 -39 10.5t-12 39.5q0 21 6 52q7 42 17.5 64t25 30.5t38.5 8.5h742q27 0 39 -11z" />
    <glyph glyph-name="K" unicode="K" 
d="M1308 1176q12 -11 12 -40q0 -20 -6 -52q-7 -42 -17.5 -64t-25 -30t-38.5 -8h-33l-410 -341q53 -3 87 -29t61 -77q17 -32 29 -67t28 -88q24 -76 33 -98q15 -37 36 -57t52 -20h15q26 0 38 -10.5t12 -39.5q0 -20 -6 -53q-7 -42 -17 -64t-24.5 -30t-38.5 -8h-129
q-62 0 -100 38.5t-61 103.5q-16 46 -33 108q-2 8 -15.5 54t-28.5 78q-19 40 -46 61.5t-61 21.5q-45 0 -85 -34l-71 -60l-29 -166h115q26 0 38 -10.5t12 -39.5q0 -20 -6 -53q-7 -42 -17 -64t-24.5 -30t-38.5 -8h-472q-27 0 -39 11t-12 40q0 25 5 51q11 61 29 82t53 21h107
l137 777h-107q-27 0 -39 10.5t-12 39.5q0 21 6 52q7 42 17.5 64t25 30.5t38.5 8.5h404q27 0 39 -11t12 -40q0 -20 -6 -52q-7 -42 -17.5 -64t-25 -30t-38.5 -8h-47l-55 -310l369 310h-43q-27 0 -39 10.5t-12 39.5q0 21 6 52q7 42 17.5 64t25 30.5t38.5 8.5h389q27 0 39 -11z
" />
    <glyph glyph-name="L" unicode="L" 
d="M915 1176q12 -11 12 -40q0 -20 -6 -52q-7 -42 -17.5 -64t-25 -30t-38.5 -8h-218l-136 -767h351l55 312q6 34 39.5 48.5t104.5 14.5q60 0 84 -11t24 -36q0 -4 -2 -16l-81 -462q-6 -35 -24 -50t-52 -15h-932q-27 0 -39 11t-12 40q0 25 5 51q11 61 29 82t53 21h146l137 777
h-146q-27 0 -39 10.5t-12 39.5q0 21 6 52q7 42 17.5 64t25 30.5t38.5 8.5h614q27 0 39 -11z" />
    <glyph glyph-name="M" unicode="M" 
d="M1313 1176q12 -11 12 -40q0 -20 -6 -52q-7 -42 -17.5 -64t-25 -30t-38.5 -8h-54l-123 -777h60q26 0 38 -10.5t12 -39.5q0 -20 -6 -53q-7 -42 -17 -64t-24.5 -30t-38.5 -8h-374q-27 0 -39 11t-12 40q0 25 5 51q11 61 29 82t53 21h92l98 592l-223 -408q-20 -35 -45 -49.5
t-67 -14.5q-43 0 -64 15t-28 49l-80 405l-110 -589h93q26 0 38 -10.5t12 -39.5q0 -20 -6 -53q-7 -42 -17 -64t-24.5 -30t-38.5 -8h-374q-27 0 -39 11t-12 40q0 25 5 51q11 61 29 82t53 21h59l152 777h-54q-27 0 -39 10.5t-12 39.5q0 21 6 52q7 42 17.5 64t25 30.5t38.5 8.5
h274q21 0 32.5 -7t15.5 -24l97 -491l268 491q9 17 23.5 24t36.5 7h295q27 0 39 -11z" />
    <glyph glyph-name="N" unicode="N" 
d="M1313 1176q12 -11 12 -40q0 -20 -6 -52q-7 -42 -17.5 -64t-25 -30t-38.5 -8h-57l-166 -938q-6 -33 -33.5 -49.5t-87.5 -16.5q-46 0 -67 12.5t-32 40.5l-315 765h-4l-104 -591h111q26 0 38 -10.5t12 -39.5q0 -20 -6 -53q-7 -42 -17 -64t-24.5 -30t-38.5 -8h-404
q-27 0 -39 11t-12 40q0 25 5 51q11 61 29 82t53 21h67l137 777h-67q-27 0 -39 10.5t-12 39.5q0 21 6 52q7 42 17.5 64t25 30.5t38.5 8.5h264q40 0 51 -27l290 -707h4l94 529h-92q-27 0 -39 10.5t-12 39.5q0 21 6 52q7 42 17.5 64t25 30.5t38.5 8.5h375q27 0 39 -11z" />
    <glyph glyph-name="O" unicode="O" 
d="M986 1148.5q107 -60.5 165 -172t58 -260.5q0 -123 -38 -254t-109 -231q-86 -123 -214.5 -188t-287.5 -65q-142 0 -249 60.5t-165 172t-58 260.5q0 123 38 254t109 231q86 123 214.5 188t287.5 65q142 0 249 -60.5zM462 849q-52 -73 -80.5 -178.5t-28.5 -203.5
q0 -127 57 -194.5t170 -67.5q159 0 255 133q52 73 80.5 178.5t28.5 203.5q0 127 -57 194.5t-170 67.5q-159 0 -255 -133z" />
    <glyph glyph-name="P" unicode="P" 
d="M1104 1100q105 -87 105 -243q0 -88 -28 -176t-85 -152q-131 -147 -419 -147h-160l-31 -177h217q26 0 38 -10.5t12 -39.5q0 -20 -6 -53q-7 -42 -17 -64t-24.5 -30t-38.5 -8h-614q-27 0 -39 11t-12 40q0 25 5 51q11 61 29 82t53 21h147l137 777h-147q-27 0 -39 10.5
t-12 39.5q0 21 6 52q7 42 17.5 64t25 30.5t38.5 8.5h537q200 0 305 -87zM555 597h119q152 0 221 75q27 29 41.5 71.5t14.5 85.5q0 143 -211 143h-119z" />
    <glyph glyph-name="Q" unicode="Q" 
d="M994.5 1151q105.5 -58 162.5 -164.5t57 -248.5q0 -129 -45 -257t-131 -224q-87 -97 -208 -148t-266 -51q-25 0 -45 2l-123 -106q83 29 159 29q31 0 56 -3.5t68 -11.5q36 -7 59 -10.5t48 -3.5q77 0 158 40q12 6 25 6q24 0 45.5 -18.5t34.5 -47.5t13 -56q0 -53 -43 -82
q-65 -42 -122.5 -59.5t-115.5 -17.5q-36 0 -72.5 5.5t-85.5 15.5q-63 12 -103.5 17.5t-86.5 5.5q-115 0 -237 -47q-8 -3 -14 -3q-20 0 -41 18.5t-35 47.5q-16 32 -16 62q0 36 24 57l233 200q-118 50 -184 164t-66 267q0 129 45 257t131 224q87 97 208 148t266 51
q142 0 247.5 -58zM473 872q-53 -63 -82 -157.5t-29 -185.5q0 -118 58.5 -181t173.5 -63q151 0 244 110q53 63 82 157.5t29 185.5q0 117 -58.5 180.5t-173.5 63.5q-151 0 -244 -110z" />
    <glyph glyph-name="R" unicode="R" 
d="M1065 1108.5q101 -78.5 101 -220.5q0 -283 -313 -355q46 -19 75 -69q27 -47 58 -133q22 -56 23 -60q14 -33 31 -49.5t42 -16.5h19q27 0 39 -11t12 -40q0 -20 -6 -52q-7 -42 -17.5 -64t-25 -30t-38.5 -8h-87q-78 0 -120.5 32t-72.5 107q-13 31 -31 97q-15 51 -25.5 82.5
t-27.5 61.5q-23 42 -58 61.5t-88 19.5h-64l-45 -256h97q26 0 38 -10.5t12 -39.5q0 -20 -6 -53q-7 -42 -17 -64t-24.5 -30t-38.5 -8h-454q-27 0 -39 11t-12 40q0 25 5 51q11 61 29 82t53 21h107l137 777h-107q-27 0 -39 10.5t-12 39.5q0 21 6 52q7 42 17.5 64t25 30.5
t38.5 8.5h517q185 0 286 -78.5zM529 676h149q128 0 183 58q21 23 33.5 56.5t12.5 66.5q0 58 -43.5 86.5t-133.5 28.5h-149z" />
    <glyph glyph-name="S" unicode="S" 
d="M1141.5 1197.5q25.5 -11.5 25.5 -38.5q0 -8 -1 -13l-49 -274q-6 -34 -30 -48.5t-73 -14.5q-33 0 -50.5 8t-25.5 24q-34 74 -101 114.5t-164 40.5q-58 0 -98.5 -23t-61 -57t-20.5 -67q0 -26 17 -43t51 -31q23 -9 59 -18t73 -17q94 -20 160.5 -41.5t118.5 -59.5
q109 -80 109 -226q0 -117 -48 -215.5t-154 -159t-271 -60.5q-82 0 -154 28t-121 78l-7 -43q-5 -34 -32.5 -48.5t-90.5 -14.5q-57 0 -82.5 11.5t-25.5 38.5q0 8 1 13l59 334q6 34 30 48.5t73 14.5q35 0 54 -9t26 -31q36 -103 101.5 -155t165.5 -52q74 0 120 24.5t66 60.5
t20 75q0 36 -21 60.5t-61 42.5q-28 13 -62 22.5t-90 23.5q-96 24 -157.5 45.5t-107.5 58.5q-87 69 -87 189q0 114 55.5 209t157 151t233.5 56q80 0 147.5 -28t109.5 -77l8 42q7 34 33.5 48.5t89.5 14.5q57 0 82.5 -11.5z" />
    <glyph glyph-name="T" unicode="T" 
d="M1246 1176.5q13 -10.5 13 -33.5q0 -5 -2 -21l-74 -422q-6 -33 -36 -48t-87 -15q-49 0 -69 10.5t-20 35.5q0 5 2 17l48 272h-181l-135 -767h226q26 0 38 -10.5t12 -39.5q0 -20 -6 -53q-7 -42 -17 -64t-24.5 -30t-38.5 -8h-682q-27 0 -39 11t-12 40q0 25 5 51q11 61 29 82
t53 21h206l135 767h-181l-48 -272q-6 -33 -36 -48t-87 -15q-49 0 -69 10.5t-20 35.5q0 5 2 17l74 422q6 34 24 49.5t53 15.5h902q29 0 42 -10.5z" />
    <glyph glyph-name="U" unicode="U" 
d="M1293 1176q12 -11 12 -40q0 -20 -6 -52q-7 -42 -17.5 -64t-25 -30t-38.5 -8h-47l-103 -579q-37 -209 -167 -317t-341 -108q-123 0 -214 43.5t-140 124.5t-49 192q0 46 9 95l97 549h-47q-27 0 -39 10.5t-12 39.5q0 21 6 52q7 42 17.5 64t25 30.5t38.5 8.5h374q27 0 39 -11
t12 -40q0 -20 -6 -52q-7 -42 -17.5 -64t-25 -30t-38.5 -8h-77l-97 -549q-6 -34 -6 -63q0 -83 45 -124t125 -41q94 0 159 56.5t85 171.5l97 549h-77q-27 0 -39 10.5t-12 39.5q0 21 6 52q7 42 17.5 64t25 30.5t38.5 8.5h374q27 0 39 -11z" />
    <glyph glyph-name="V" unicode="V" 
d="M1353 1176q12 -11 12 -40q0 -20 -6 -52q-7 -42 -17.5 -64t-25 -30t-38.5 -8h-68l-529 -939q-20 -36 -51.5 -50.5t-92.5 -14.5t-87 15t-33 50l-184 939h-77q-27 0 -39 10.5t-12 39.5q0 21 6 52q7 42 17.5 64t25 30.5t38.5 8.5h426q27 0 39 -11t12 -40q0 -20 -6 -52
q-7 -42 -17.5 -64t-25 -30t-38.5 -8h-89l107 -613l337 613h-71q-27 0 -39 10.5t-12 39.5q0 21 6 52q7 42 17.5 64t25 30.5t38.5 8.5h412q27 0 39 -11z" />
    <glyph glyph-name="W" unicode="W" 
d="M1363 1176q12 -11 12 -40q0 -20 -6 -52q-7 -42 -17.5 -64t-25 -30t-38.5 -8h-55l-268 -939q-7 -25 -20.5 -39t-39.5 -20t-72 -6q-66 0 -93 15t-33 50l-77 471l-245 -471q-19 -36 -51 -50.5t-99 -14.5q-46 0 -69.5 6t-32 20t-6.5 39l68 939h-49q-27 0 -39 10.5t-12 39.5
q0 21 6 52q7 42 17.5 64t25 30.5t38.5 8.5h384q27 0 39 -11t12 -40q0 -20 -6 -52q-7 -42 -17.5 -64t-25 -30t-38.5 -8h-118l-46 -574l218 418q12 23 33.5 35t68.5 12q49 0 69.5 -9.5t23.5 -30.5l70 -425l159 574h-104q-27 0 -39 10.5t-12 39.5q0 21 6 52q7 42 17.5 64
t25 30.5t38.5 8.5h384q27 0 39 -11z" />
    <glyph glyph-name="X" unicode="X" 
d="M1283 1176q12 -11 12 -40q0 -20 -6 -52q-7 -42 -17.5 -64t-25 -30t-38.5 -8h-56l-339 -385l217 -392h71q26 0 38 -10.5t12 -39.5q0 -20 -6 -53q-7 -42 -17 -64t-24.5 -30t-38.5 -8h-396q-27 0 -39 11t-12 40q0 25 5 51q11 61 29 82t53 21h44l-126 237l-208 -237h36
q26 0 38 -10.5t12 -39.5q0 -20 -6 -53q-7 -42 -17 -64t-24.5 -30t-38.5 -8h-392q-27 0 -39 11t-12 40q0 25 5 51q11 61 29 82t53 21h62l372 420l-195 357h-72q-27 0 -39 10.5t-12 39.5q0 21 6 52q7 42 17.5 64t25 30.5t38.5 8.5h388q27 0 39 -11t12 -40q0 -20 -6 -52
q-7 -42 -17.5 -64t-25 -30t-38.5 -8h-41l107 -204l178 204h-20q-27 0 -39 10.5t-12 39.5q0 21 6 52q7 42 17.5 64t25 30.5t38.5 8.5h370q27 0 39 -11z" />
    <glyph glyph-name="Y" unicode="Y" 
d="M1303 1176q12 -11 12 -40q0 -20 -6 -52q-7 -42 -17.5 -64t-25 -30t-38.5 -8h-45l-433 -522l-45 -255h206q26 0 38 -10.5t12 -39.5q0 -20 -6 -53q-7 -42 -17 -64t-24.5 -30t-38.5 -8h-642q-27 0 -39 11t-12 40q0 25 5 51q11 61 29 82t53 21h186l46 262l-245 515h-50
q-27 0 -39 10.5t-12 39.5q0 21 6 52q7 42 17.5 64t25 30.5t38.5 8.5h384q27 0 39 -11t12 -40q0 -20 -6 -52q-7 -42 -17.5 -64t-25 -30t-38.5 -8h-67l134 -292l239 292h-52q-27 0 -39 10.5t-12 39.5q0 21 6 52q7 42 17.5 64t25 30.5t38.5 8.5h384q27 0 39 -11z" />
    <glyph glyph-name="Z" unicode="Z" 
d="M1185 1176q12 -11 12 -40q0 -20 -6 -52q-11 -58 -40 -92l-681 -777h357l40 222q5 33 37 48t96 15q55 0 76.5 -11t21.5 -37q0 -9 -1 -15l-66 -372q-6 -35 -24 -50t-52 -15h-814q-27 0 -39 11t-12 40q0 25 5 51q11 64 37 93l681 777h-324l-36 -202q-6 -34 -37.5 -48.5
t-95.5 -14.5q-55 0 -77 11t-22 36q0 4 2 16l62 352q6 34 24 49.5t53 15.5h784q27 0 39 -11z" />
    <glyph glyph-name="bracketleft" unicode="[" 
d="M1072.5 1360.5q11.5 -11.5 11.5 -42.5q0 -23 -6 -59q-11 -63 -30 -87.5t-53 -24.5h-323l-221 -1255h323q26 0 37.5 -11t11.5 -42q0 -23 -6 -59q-11 -67 -29 -90t-54 -23h-510q-28 0 -41 10t-13 32q0 5 2 21l279 1579q6 34 23 48.5t51 14.5h510q26 0 37.5 -11.5z" />
    <glyph glyph-name="backslash" unicode="\" 
d="M549 1356l397 -1629q2 -8 2 -13q0 -34 -43.5 -54t-114.5 -20q-59 0 -69 43l-397 1629q-2 8 -2 13q0 34 43.5 54t114.5 20q59 0 69 -43z" />
    <glyph glyph-name="bracketright" unicode="]" 
d="M1088 1362q13 -10 13 -32q0 -5 -2 -21l-279 -1579q-6 -34 -23 -48.5t-51 -14.5h-510q-26 0 -37.5 11.5t-11.5 41.5q0 22 6 60q10 62 29 87t54 25h323l221 1255h-323q-26 0 -37.5 11t-11.5 42q0 23 6 59q11 67 29 90t54 23h510q28 0 41 -10z" />
    <glyph glyph-name="asciicircum" unicode="^" 
d="M820.5 1200q21.5 -9 27.5 -28l211 -610q2 -8 2 -12q0 -24 -27 -43.5t-67 -29.5q-33 -9 -67 -9q-28 0 -46.5 7.5t-22.5 21.5l-121 390l-253 -390q-18 -29 -84 -29q-24 0 -54 5q-43 9 -71.5 26.5t-28.5 39.5q0 10 8 23l425 610q13 19 37.5 28t67.5 9q42 0 63.5 -9z" />
    <glyph glyph-name="underscore" unicode="_" 
d="M1219.5 -299q12.5 -11 12.5 -42q0 -16 -7 -60q-9 -48 -19 -71.5t-25 -32t-42 -8.5h-1163q-35 0 -48.5 9t-13.5 38q0 20 8 65q9 50 18.5 73.5t25 31.5t45.5 8h1166q30 0 42.5 -11z" />
    <glyph glyph-name="grave" unicode="`" 
d="M961.5 1124q7.5 -13 7.5 -27q0 -12 -5 -25q-7 -19 -20.5 -30t-31.5 -11q-10 0 -16 2l-480 125q-29 8 -29 46q0 36 26 97q44 99 93 99q13 0 27 -8l408 -247q13 -8 20.5 -21z" />
    <glyph glyph-name="a" unicode="a" 
d="M1152.5 214q11.5 -11 11.5 -42q0 -23 -6 -59q-11 -67 -29 -90t-54 -23h-24q-84 0 -142 32.5t-81 100.5q-149 -155 -364 -155q-108 0 -189 51t-125 142t-44 209q0 134 58 264.5t173 216t277 85.5q91 0 164.5 -44.5t110.5 -119.5l13 79q5 34 22.5 48.5t51.5 14.5h94
q28 0 41 -10t13 -32q0 -5 -2 -21l-90 -511q-4 -21 -4 -42q0 -83 82 -83h5q26 0 37.5 -11zM684 253q64 47 97.5 120.5t33.5 148.5q0 92 -53 144t-137 52q-85 0 -142 -51t-84 -126.5t-27 -149.5q0 -85 42.5 -135t120.5 -50q85 0 149 47z" />
    <glyph glyph-name="b" unicode="b" 
d="M566 1302q13 -10 13 -32q0 -5 -2 -21l-74 -416q129 113 273 113q109 0 191 -51t126 -142t44 -209q0 -134 -58 -264.5t-174 -216t-279 -85.5q-95 0 -170 47t-113 127l-17 -99q-6 -33 -36 -48t-87 -15q-49 0 -69 10.5t-20 35.5q0 5 2 17l186 1054h-97q-27 0 -39 10.5
t-12 39.5q0 21 6 52q7 42 17.5 64t25 30.5t38.5 8.5h284q28 0 41 -10zM556.5 672q-63.5 -47 -97.5 -120.5t-34 -149.5q0 -93 53 -145t138 -52t142.5 52t85 128.5t27.5 147.5q0 87 -43.5 136.5t-121.5 49.5q-86 0 -149.5 -47z" />
    <glyph glyph-name="c" unicode="c" 
d="M1128 935q22 -11 22 -36q0 -4 -2 -16l-56 -321q-6 -34 -39.5 -48.5t-104.5 -14.5q-60 0 -84 11t-24 36q0 4 2 16q2 9 2 28q0 56 -39.5 92.5t-114.5 36.5q-93 0 -158.5 -47.5t-98.5 -120.5t-33 -149q0 -92 53 -144.5t147 -52.5q77 0 161.5 25t168.5 69q17 9 31 9
q43 0 74 -83q15 -42 15 -71q0 -25 -11 -42t-34 -29q-100 -49 -213.5 -77t-216.5 -28q-134 0 -234 53t-153.5 146.5t-53.5 211.5q0 137 64.5 265.5t188.5 210t293 81.5q82 0 143.5 -31.5t84.5 -90.5l10 59q6 34 37.5 48.5t95.5 14.5q55 0 77 -11z" />
    <glyph glyph-name="d" unicode="d" 
d="M1180 1302q13 -10 13 -32q0 -5 -2 -21l-184 -1044h87q27 0 39 -10.5t12 -39.5q0 -20 -6 -52q-7 -42 -17.5 -64t-25 -30.5t-38.5 -8.5h-234q-28 0 -41 10t-13 32q0 5 2 21l13 75q-150 -160 -321 -160q-109 0 -191 51t-126 142t-44 209q0 134 58 264.5t174 216t279 85.5
q78 0 143.5 -32.5t108.5 -89.5l50 283h-147q-27 0 -39 10.5t-12 39.5q0 21 6 52q7 42 17.5 64t25 30.5t38.5 8.5h334q28 0 41 -10zM481.5 667q-57.5 -52 -85 -128.5t-27.5 -147.5q0 -87 43.5 -136.5t121.5 -49.5q86 0 149.5 47t97.5 120.5t34 149.5q0 93 -53 145t-138 52
t-142.5 -52z" />
    <glyph glyph-name="e" unicode="e" 
d="M974 264q23 0 36 -19.5t23 -68.5q6 -31 6 -54q0 -31 -13 -47.5t-42 -25.5q-108 -34 -221.5 -52.5t-218.5 -18.5q-127 0 -219 51.5t-140 142.5t-48 207q0 156 69 285t200 205.5t308 76.5q116 0 204 -39.5t136.5 -110.5t48.5 -162q0 -114 -62.5 -180.5t-188.5 -79.5
l-453 -45q15 -61 62 -92.5t123 -31.5q174 0 365 55q12 4 25 4zM412 516l349 35q42 4 60 24t18 49q0 40 -37.5 67.5t-113.5 27.5q-216 0 -276 -203z" />
    <glyph glyph-name="f" unicode="f" 
d="M1246 1260q47 -18 47 -65q0 -26 -15 -68q-16 -44 -36 -62.5t-44 -18.5q-12 0 -29 5q-62 20 -113.5 29.5t-101.5 9.5q-129 0 -159 -166l-10 -60h311q26 0 38 -12t12 -42q0 -21 -6 -54q-11 -62 -29 -84.5t-53 -22.5h-311l-122 -694q-33 -185 -129 -277.5t-264 -92.5
q-88 0 -156 21.5t-143 74.5q-31 22 -31 54q0 30 28 78q42 72 85 72q17 0 34 -11q51 -34 91.5 -48t89.5 -14q59 0 95.5 37.5t51.5 118.5l120 681h-183q-26 0 -38 11.5t-12 41.5q0 21 6 54q11 62 29 85t53 23h183l13 73q33 189 132.5 284.5t271.5 95.5q152 0 294 -57z" />
    <glyph glyph-name="g" unicode="g" 
d="M808 906.5q73 -39.5 117 -115.5l14 80q6 33 36 48t87 15q49 0 69 -10.5t20 -35.5q0 -5 -2 -17l-153 -870q-35 -198 -164.5 -304.5t-362.5 -106.5q-79 0 -173 17.5t-189 51.5q-21 8 -31.5 21t-10.5 35q0 27 18 75q19 48 39 68.5t43 20.5q11 0 26 -5q71 -26 148 -41.5
t140 -15.5q123 0 187.5 51t82.5 153l18 102q-60 -55 -130 -85t-143 -30q-112 0 -194.5 50t-126 138t-43.5 199q0 135 58 262t173.5 208t277.5 81q96 0 169 -39.5zM510 673q-57 -46 -85 -116.5t-28 -144.5q0 -85 44 -131t123 -46q88 0 150.5 43.5t94.5 112t32 143.5
q0 90 -53.5 137.5t-138.5 47.5q-82 0 -139 -46z" />
    <glyph glyph-name="h" unicode="h" 
d="M596 1302q13 -10 13 -32q0 -5 -2 -21l-84 -475q148 172 310 172q79 0 137 -34t89.5 -95t31.5 -141q0 -32 -7 -76l-69 -395h77q26 0 38 -10.5t12 -39.5q0 -20 -6 -53q-7 -42 -17 -64t-24.5 -30t-38.5 -8h-264q-28 0 -41 10t-13 32q0 5 2 21l87 498q6 32 6 58
q0 49 -22.5 74.5t-72.5 25.5q-58 0 -120 -55.5t-109.5 -144t-63.5 -181.5l-47 -275q-6 -34 -23 -48.5t-51 -14.5h-124q-28 0 -41 10t-13 32q0 5 2 21l184 1044h-97q-27 0 -39 10.5t-12 39.5q0 21 6 52q7 42 17.5 64t25 30.5t38.5 8.5h284q28 0 41 -10z" />
    <glyph glyph-name="i" unicode="i" 
d="M828.5 1371q27.5 -12 27.5 -38q0 -8 -1 -13l-29 -164q-6 -35 -35 -49t-99 -14q-64 0 -90.5 11.5t-26.5 38.5q0 8 1 13l29 164q6 35 34.5 49t98.5 14q63 0 90.5 -12zM763 914q13 -10 13 -32q0 -5 -2 -21l-88 -500q-5 -32 -5 -53q0 -53 24.5 -78t72.5 -25q49 0 94.5 14
t108.5 48q20 11 36 11q22 0 39 -18t34 -56q21 -47 21 -70q0 -36 -41 -60q-94 -53 -170 -74.5t-164 -21.5q-146 0 -226.5 77t-80.5 217q0 45 9 96l61 351h-193q-27 0 -39 10.5t-12 39.5q0 21 6 52q7 42 17.5 64t25 30.5t38.5 8.5h380q28 0 41 -10z" />
    <glyph glyph-name="j" unicode="j" 
d="M1058.5 1371q27.5 -12 27.5 -38q0 -8 -1 -13l-29 -164q-6 -35 -35 -49t-99 -14q-64 0 -90.5 11.5t-26.5 38.5q0 8 1 13l29 164q6 35 34.5 49t98.5 14q63 0 90.5 -12zM993 914q13 -10 13 -32q0 -5 -2 -21l-159 -901q-33 -188 -131 -279t-271 -91q-84 0 -172.5 26.5
t-173.5 73.5q-36 20 -36 55q0 30 27 82q22 41 42.5 58.5t41.5 17.5q14 0 32 -8q76 -37 133.5 -57.5t103.5 -20.5q130 0 159 166l129 736h-383q-27 0 -39 10.5t-12 39.5q0 21 6 52q7 42 17.5 64t25 30.5t38.5 8.5h570q28 0 41 -10z" />
    <glyph glyph-name="k" unicode="k" 
d="M606 1302q13 -10 13 -32q0 -5 -2 -21l-126 -714l289 204h-43q-28 0 -40 10.5t-12 38.5q0 15 5 43q9 55 26.5 74t52.5 19h414q27 0 39.5 -11t12.5 -39q0 -15 -5 -43q-9 -54 -26.5 -73t-52.5 -19h-30l-430 -290q27 5 48 5q51 0 93 -26q35 -21 54.5 -51t40.5 -75
q2 -4 10 -20.5t15.5 -29t15.5 -20.5q24 -27 65 -27h29q26 0 38 -10.5t12 -39.5q0 -20 -6 -53q-7 -42 -17 -64t-24.5 -30t-38.5 -8h-117q-68 0 -116 47q-23 22 -38.5 49t-34.5 67q-22 46 -37 70.5t-38 42.5q-35 28 -87 28q-28 0 -56.5 -8.5t-51.5 -25.5l-7 -5l-35 -202
q-6 -34 -23 -48.5t-51 -14.5h-124q-28 0 -41 10t-13 32q0 5 2 21l184 1044h-97q-27 0 -39 10.5t-12 39.5q0 21 6 52q7 42 17.5 64t25 30.5t38.5 8.5h284q28 0 41 -10z" />
    <glyph glyph-name="l" unicode="l" 
d="M802 1302q13 -10 13 -32q0 -5 -2 -21l-157 -888q-5 -32 -5 -53q0 -53 24.5 -78t72.5 -25q49 0 94.5 14t108.5 48q20 11 36 11q22 0 39 -18t34 -56q21 -47 21 -70q0 -36 -41 -60q-94 -53 -170 -74.5t-164 -21.5q-146 0 -226.5 77t-80.5 217q0 45 9 96l130 739h-233
q-27 0 -39 10.5t-12 39.5q0 21 6 52q7 42 17.5 64t25 30.5t38.5 8.5h420q28 0 41 -10z" />
    <glyph glyph-name="m" unicode="m" 
d="M1171 892.5q44 -53.5 44 -156.5q0 -49 -10 -103l-100 -570q-6 -34 -23 -48.5t-51 -14.5h-124q-28 0 -41 10t-13 32q0 5 2 21l92 523q5 32 5 49q0 54 -39 54q-47 0 -87.5 -73t-64.5 -213l-60 -340q-6 -34 -23 -48.5t-51 -14.5h-124q-28 0 -41 10t-13 32q0 5 2 21l92 523
q5 32 5 49q0 54 -39 54q-47 0 -87.5 -73t-64.5 -213l-60 -340q-6 -34 -23 -48.5t-51 -14.5h-124q-28 0 -41 10t-13 32q0 5 2 21l115 656h-57q-27 0 -39 10.5t-12 39.5q0 21 6 52q7 42 17.5 64t25 30.5t38.5 8.5h174q28 0 41 -10t13 -32q0 -5 -2 -21l-25 -144q63 113 134 171
t146 58q76 0 114.5 -52t45.5 -151q55 99 126.5 151t143.5 52q75 0 119 -53.5z" />
    <glyph glyph-name="n" unicode="n" 
d="M970 912q58 -34 89.5 -95.5t31.5 -141.5q0 -31 -7 -75l-69 -395h77q26 0 38 -10.5t12 -39.5q0 -20 -6 -53q-7 -42 -17 -64t-24.5 -30t-38.5 -8h-264q-28 0 -41 10t-13 32q0 5 2 21l87 498q6 33 6 60q0 48 -22.5 73t-72.5 25q-58 0 -120 -55.5t-109.5 -144t-63.5 -181.5
l-47 -275q-6 -34 -23 -48.5t-51 -14.5h-124q-28 0 -41 10t-13 32q0 5 2 21l115 656h-97q-27 0 -39 10.5t-12 39.5q0 21 6 52q7 42 17.5 64t25 30.5t38.5 8.5h244q28 0 41 -10t13 -32q0 -5 -2 -21l-25 -145q86 119 175 174.5t185 55.5q79 0 137 -34z" />
    <glyph glyph-name="o" unicode="o" 
d="M932 893q99 -53 151.5 -146.5t52.5 -210.5q0 -134 -64 -262.5t-196.5 -212t-325.5 -83.5q-134 0 -233 53t-151.5 146t-52.5 211q0 138 66 266t198.5 210t322.5 82q133 0 232 -53zM516 674.5q-66 -44.5 -101 -117.5t-35 -156q0 -91 53.5 -143.5t146.5 -52.5
q88 0 153.5 44.5t100.5 117t35 155.5q0 91 -53 144t-146 53q-88 0 -154 -44.5z" />
    <glyph glyph-name="p" unicode="p" 
d="M987 895q82 -51 126 -142t44 -209q0 -134 -58 -264.5t-174 -216t-279 -85.5q-78 0 -143.5 32.5t-108.5 89.5l-50 -283h167q27 0 39 -11t12 -40q0 -21 -6 -52q-7 -42 -17.5 -64t-25 -30t-38.5 -8h-504q-26 0 -38 10.5t-12 39.5q0 20 6 52q7 42 17 64t24.5 30.5t38.5 8.5
h87l159 902h-87q-27 0 -39 10.5t-12 39.5q0 21 6 52q7 42 17.5 64t25 30.5t38.5 8.5h234q28 0 41 -10t13 -32q0 -5 -2 -21l-13 -75q150 160 321 160q109 0 191 -51zM576.5 672q-63.5 -47 -97.5 -120.5t-34 -149.5q0 -93 53 -145t138 -52t142.5 52t85 128.5t27.5 147.5
q0 87 -43.5 136.5t-121.5 49.5q-86 0 -149.5 -47z" />
    <glyph glyph-name="q" unicode="q" 
d="M809 899q75 -47 113 -127l17 99q6 33 36 48t87 15q49 0 69 -10.5t20 -35.5q0 -5 -2 -17l-186 -1054h87q27 0 39 -11t12 -40q0 -21 -6 -52q-7 -42 -17.5 -64t-25 -30t-38.5 -8h-504q-27 0 -39 10.5t-12 39.5q0 20 6 52q7 42 17.5 64t25 30.5t38.5 8.5h167l49 274
q-129 -113 -273 -113q-109 0 -191 51t-126 142t-44 209q0 134 58 264.5t174 216t279 85.5q95 0 170 -47zM506.5 667q-57.5 -52 -85 -128.5t-27.5 -147.5q0 -87 43.5 -136.5t121.5 -49.5q86 0 149.5 47t97.5 120.5t34 149.5q0 93 -53 145t-138 52t-142.5 -52z" />
    <glyph glyph-name="r" unicode="r" 
d="M1163 890q37 -30 37 -73q0 -38 -28 -88q-49 -90 -98 -90q-15 0 -29 8q-49 28 -106 28q-79 0 -158.5 -50.5t-137.5 -139t-76 -195.5l-14 -85h287q26 0 38 -10.5t12 -39.5q0 -20 -6 -53q-7 -42 -17 -64t-24.5 -30t-38.5 -8h-684q-27 0 -39 11t-12 40q0 25 5 51q11 61 29 82
t53 21h147l90 514h-117q-27 0 -39 10.5t-12 39.5q0 21 6 52q7 42 17.5 64t25 30.5t38.5 8.5h274q28 0 41 -10t13 -32q0 -5 -2 -21l-36 -207q97 142 203.5 217t204.5 75q83 0 153 -56z" />
    <glyph glyph-name="s" unicode="s" 
d="M1084.5 934.5q25.5 -11.5 25.5 -38.5q0 -8 -1 -13l-37 -211q-6 -34 -30 -48.5t-73 -14.5q-54 0 -69 21q-48 63 -119.5 89.5t-171.5 26.5q-69 0 -105 -25t-36 -61q0 -23 17.5 -36t53.5 -21q22 -5 103 -17q102 -14 173 -29.5t127 -47.5q52 -30 80.5 -76.5t28.5 -117.5
q0 -88 -44.5 -164t-143.5 -124.5t-255 -48.5q-75 0 -136 19t-119 57l-2 -13q-5 -33 -37 -48t-96 -15q-57 0 -82.5 11.5t-25.5 38.5q0 8 1 13l39 223q6 33 32 48t75 15q61 0 78 -28q40 -63 112.5 -92t165.5 -29q92 0 134 26t42 65q0 45 -73 62q-25 6 -104 18
q-104 16 -172 32.5t-123 49.5q-52 31 -80.5 79t-28.5 120q0 84 44.5 156t136 116t223.5 44q155 0 264 -78l3 15q7 34 33.5 48.5t89.5 14.5q57 0 82.5 -11.5z" />
    <glyph glyph-name="t" unicode="t" 
d="M713 1198q24 -11 24 -36q0 -4 -2 -16l-50 -282h371q26 0 38 -12t12 -42q0 -21 -6 -54q-11 -62 -29 -84.5t-53 -22.5h-371l-49 -278q-5 -25 -5 -55q0 -111 105 -111q46 0 111.5 21t152.5 57q15 7 31 7q22 0 39 -18.5t33 -62.5q14 -40 14 -63t-12 -38t-36 -26
q-107 -50 -200.5 -77t-174.5 -27q-151 0 -234 76.5t-83 218.5q0 44 9 95l49 281h-193q-26 0 -38 11.5t-12 41.5q0 21 6 54q11 62 29 85t53 23h193l50 282q6 34 39 48.5t104 14.5q61 0 85 -11z" />
    <glyph glyph-name="u" unicode="u" 
d="M1102 914q13 -10 13 -32q0 -5 -2 -21l-115 -656h77q27 0 39 -10.5t12 -39.5q0 -20 -6 -52q-7 -42 -17.5 -64t-25 -30.5t-38.5 -8.5h-224q-28 0 -41 10t-13 32q0 5 2 21l25 145q-86 -119 -175 -174.5t-185 -55.5q-79 0 -137 34t-89.5 95.5t-31.5 141.5q0 39 7 75l69 395
h-77q-27 0 -39 11t-12 40q0 21 6 52q7 42 17.5 64t25 30t38.5 8h264q28 0 41 -10t13 -32q0 -5 -2 -21l-87 -498q-6 -31 -6 -58q0 -49 22.5 -74.5t72.5 -25.5q58 0 120.5 55.5t110 144.5t62.5 181l22 133h-107q-27 0 -39 11t-12 40q0 21 6 52q7 42 17.5 64t25 30t38.5 8h294
q28 0 41 -10z" />
    <glyph glyph-name="v" unicode="v" 
d="M1256 913q12 -11 12 -40q0 -20 -6 -52q-7 -42 -17.5 -64t-25 -30t-38.5 -8h-68l-412 -676q-21 -35 -57.5 -50t-106.5 -15t-100.5 15.5t-39.5 49.5l-172 676h-66q-27 0 -39 10.5t-12 39.5q0 21 6 52q7 42 17.5 64t25 30.5t38.5 8.5h391q27 0 39 -11t12 -40q0 -20 -6 -52
q-7 -42 -17.5 -64t-25 -30t-38.5 -8h-67l100 -441l256 441h-55q-27 0 -39 10.5t-12 39.5q0 21 6 52q7 42 17.5 64t25 30.5t38.5 8.5h397q27 0 39 -11z" />
    <glyph glyph-name="w" unicode="w" 
d="M1316 913q12 -11 12 -40q0 -20 -6 -52q-7 -42 -17.5 -64t-25 -30t-38.5 -8h-41l-265 -676q-14 -36 -43 -50.5t-89 -14.5q-59 0 -84 15.5t-32 49.5l-77 355l-205 -355q-20 -35 -51 -50t-89 -15q-60 0 -83 14.5t-25 50.5l-24 676h-34q-27 0 -39 10.5t-12 39.5q0 21 6 52
q7 42 17.5 64t25 30.5t38.5 8.5h336q27 0 39 -11t12 -40q0 -20 -6 -52q-7 -42 -17.5 -64t-25 -30t-38.5 -8h-85l7 -388l198 339q16 28 40.5 42.5t65.5 14.5q43 0 62.5 -12t25.5 -38l76 -346l146 388h-72q-27 0 -39 10.5t-12 39.5q0 21 6 52q7 42 17.5 64t25 30.5t38.5 8.5
h342q27 0 39 -11z" />
    <glyph glyph-name="x" unicode="x" 
d="M1216 913q12 -11 12 -40q0 -20 -6 -52q-7 -42 -17.5 -64t-25 -30t-38.5 -8h-48l-296 -261l212 -253h52q26 0 38 -10.5t12 -39.5q0 -20 -6 -53q-7 -42 -17 -64t-24.5 -30t-38.5 -8h-384q-27 0 -39 11t-12 40q0 25 5 51q11 61 29 82t53 21h32l-114 135l-149 -135h7
q26 0 38 -10.5t12 -39.5q0 -20 -6 -53q-7 -42 -17 -64t-24.5 -30t-38.5 -8h-354q-27 0 -39 11t-12 40q0 25 5 51q11 61 29 82t53 21h44l311 274l-202 240h-53q-27 0 -39 10.5t-12 39.5q0 21 6 52q7 42 17.5 64t25 30.5t38.5 8.5h374q27 0 39 -11t12 -40q0 -20 -6 -52
q-7 -42 -17.5 -64t-25 -30t-38.5 -8h-31l111 -132l146 132h-12q-27 0 -39 10.5t-12 39.5q0 21 6 52q7 42 17.5 64t25 30.5t38.5 8.5h354q27 0 39 -11z" />
    <glyph glyph-name="y" unicode="y" 
d="M1256 913q12 -11 12 -40q0 -20 -6 -52q-7 -42 -17.5 -64t-25 -30t-38.5 -8h-59l-520 -776q-95 -142 -171.5 -215t-161.5 -103.5t-212 -34.5q-32 -1 -48 21.5t-16 81.5q0 119 64 123q80 5 134.5 31.5t105.5 83t129 169.5l-192 619h-75q-27 0 -39 10.5t-12 39.5q0 21 6 52
q7 42 17.5 64t25 30.5t38.5 8.5h394q27 0 39 -11t12 -40q0 -20 -6 -52q-7 -42 -17.5 -64t-25 -30t-38.5 -8h-60l107 -380l241 380h-54q-27 0 -39 10.5t-12 39.5q0 21 6 52q7 42 17.5 64t25 30.5t38.5 8.5h394q27 0 39 -11z" />
    <glyph glyph-name="z" unicode="z" 
d="M1138 913.5q12 -10.5 12 -39.5q0 -20 -6 -52q-4 -27 -14.5 -45t-31.5 -37l-587 -535h315l22 124q5 34 34 48.5t99 14.5q58 0 78.5 -10t20.5 -33q0 -6 -2 -20l-47 -264q-6 -35 -24 -50t-52 -15h-814q-27 0 -39 11t-12 40q0 25 5 51q5 27 15.5 45t31.5 37l587 535h-295
l-20 -114q-6 -35 -34.5 -49t-98.5 -14q-58 0 -78.5 9.5t-20.5 32.5q0 5 2 21l45 254q6 35 24 50t52 15h794q27 0 39 -10.5z" />
    <glyph glyph-name="braceleft" unicode="{" 
d="M1135 1361q12 -11 12 -41q0 -20 -6 -53q-8 -46 -18.5 -69t-25 -31t-38.5 -8q-94 0 -149.5 -22.5t-82.5 -68t-35 -118.5l-11 -104q-12 -116 -79.5 -189.5t-205.5 -109.5l-1 -10q185 -57 185 -235q0 -29 -7 -73l-18 -104q-9 -56 -9 -86q0 -80 47.5 -119.5t160.5 -39.5
q27 0 38.5 -10t11.5 -39q0 -22 -6 -58q-11 -62 -29 -84t-53 -22q-216 0 -318.5 80.5t-102.5 242.5q0 62 13 130l21 113q5 24 5 53q0 149 -199 149q-26 0 -38 11t-12 40q0 22 6 56q7 44 17.5 66.5t25 31t38.5 8.5q121 0 188.5 51t74.5 147l9 126q10 141 72.5 229t180.5 129.5
t300 41.5q26 0 38 -11z" />
    <glyph glyph-name="bar" unicode="|" 
d="M878.5 1382.5q25.5 -11.5 25.5 -38.5q0 -8 -1 -13l-287 -1623q-6 -33 -41.5 -48t-101.5 -15q-57 0 -82.5 11.5t-25.5 38.5q0 8 1 13l287 1623q6 33 41.5 48t101.5 15q57 0 82.5 -11.5z" />
    <glyph glyph-name="braceright" unicode="}" 
d="M113 -322q-12 11 -12 41q0 20 6 53q8 46 18.5 69t25 31t38.5 8q92 0 148 24t84 71.5t37 123.5l17 138q15 118 81 192.5t204 106.5l1 10q-94 30 -136 93t-42 156q0 27 3 55l7 64q5 47 5 76q0 58 -18 94.5t-62.5 55.5t-123.5 19q-27 0 -38.5 10t-11.5 39q0 22 6 58
q11 62 29 84t53 22q149 0 240 -36.5t133 -110t42 -187.5q0 -47 -8 -109l-10 -79q-3 -22 -3 -44q0 -77 46 -117.5t149 -40.5q26 0 38 -11t12 -40q0 -21 -6 -56q-7 -44 -17.5 -66.5t-25 -31t-38.5 -8.5q-120 0 -187 -53.5t-77 -154.5l-14 -150q-14 -151 -76.5 -240.5
t-178.5 -129.5t-300 -40q-26 0 -38 11z" />
    <glyph glyph-name="asciitilde" unicode="~" 
d="M562 747.5q47 -17.5 113 -51.5q53 -28 90 -42.5t73 -14.5q39 0 69.5 16t62.5 50q18 19 40 19q33 0 74 -37q47 -41 47 -78q0 -17 -13 -38q-59 -87 -128.5 -131t-159.5 -44q-54 0 -102.5 18t-112.5 52q-54 28 -90 42t-71 14q-39 0 -69.5 -16t-62.5 -50q-18 -19 -40 -19
q-33 0 -74 37q-47 41 -47 78q0 17 13 38q59 87 128.5 131t159.5 44q53 0 100 -17.5z" />
    <glyph glyph-name="uni00A0" unicode="&#xa0;" 
 />
    <glyph glyph-name="exclamdown" unicode="&#xa1;" 
d="M502.5 609q-36.5 15 -30.5 48l38 214q6 34 42.5 48.5t117.5 14.5q83 0 119.5 -15t30.5 -48l-38 -214q-6 -34 -42.5 -48.5t-117.5 -14.5q-83 0 -119.5 15zM310 -316q0 9 3 21l173 657q15 58 109 58t89 -58l-59 -657q-4 -50 -50 -50h-230q-35 0 -35 29z" />
    <glyph glyph-name="cent" unicode="&#xa2;" 
d="M844.5 1302q18.5 -10 18.5 -34q0 -5 -2 -19l-33 -186q77 -31 105 -99l10 59q6 34 37.5 48.5t95.5 14.5q55 0 77 -11t22 -36q0 -4 -2 -16l-56 -321q-6 -34 -39.5 -48.5t-104.5 -14.5q-60 0 -84 11t-24 36q0 4 2 16q2 18 2 27q0 40 -20 71t-59 46l-88 -495q121 17 253 88
q17 9 31 9q43 0 74 -83q15 -42 15 -71q0 -25 -11 -42t-34 -29q-85 -42 -180.5 -69t-187.5 -34l-32 -182q-6 -35 -28 -49t-77 -14q-46 0 -64.5 10t-18.5 34q0 5 2 19l34 193q-99 22 -171 78t-110 138.5t-38 181.5q0 129 57.5 251t168 205t261.5 98l29 166q6 35 27.5 49
t76.5 14q47 0 65.5 -10zM505 765.5q-40 -47.5 -60 -106t-20 -117.5q0 -62 24.5 -106.5t69.5 -67.5l83 469q-57 -24 -97 -71.5z" />
    <glyph glyph-name="sterling" unicode="&#xa3;" 
d="M919 1186.5q85 -22.5 163 -66.5q36 -21 36 -52q0 -7 -1 -11l-37 -207q-6 -34 -37.5 -48.5t-95.5 -14.5q-55 0 -77 11t-22 36q0 4 2 16l20 111q-59 31 -138 31q-56 0 -92 -27t-52 -66.5t-16 -79.5q0 -33 8 -62t25 -74q5 -11 13 -33h291q26 0 38 -11t12 -41q0 -26 -7 -61
q-8 -47 -18.5 -71t-25.5 -32.5t-39 -8.5h-240q-16 -59 -54 -110.5t-100 -107.5q81 28 147 28q38 0 87 -9q50 -8 78 -8q63 0 138 33q8 4 17 4q21 0 40 -21t30 -52q11 -30 11 -59q0 -22 -7.5 -40t-21.5 -27q-68 -44 -124.5 -61t-112.5 -17q-30 0 -57 4t-75 12q-53 10 -87 14.5
t-74 4.5q-114 0 -238 -47q-4 -2 -12 -2q-21 0 -41 21.5t-33 53.5q-11 30 -11 58q0 44 28 64q101 70 153 128t70 136h-163q-26 0 -38 10.5t-12 40.5q0 26 7 61q8 47 19 71t25.5 33t38.5 9h98q-18 55 -26.5 91.5t-8.5 78.5q0 91 46.5 181t144.5 149t242 59q81 0 166 -22.5z
" />
    <glyph glyph-name="currency" unicode="&#xa4;" 
d="M1218 955q0 -20 -24 -41l-158 -133q25 -69 25 -144q0 -69 -20.5 -134.5t-59.5 -120.5l103 -123q17 -20 17 -37q0 -16 -14.5 -35.5t-48.5 -47.5q-56 -48 -85 -48q-20 0 -41 24l-103 123q-91 -40 -194 -40q-119 0 -208 54l-159 -133q-21 -18 -37 -18t-35.5 14.5t-47.5 48.5
q-49 57 -49 87q0 19 24 40l160 135q-24 63 -24 141q0 69 20.5 134t59.5 121l-103 122q-18 21 -18 37t14.5 35.5t48.5 47.5q57 49 87 49q19 0 40 -24l103 -123q91 40 194 40q117 0 206 -53l159 133q20 17 37 17q16 0 35.5 -14.5t47.5 -48.5q48 -56 48 -85zM507.5 460
q46.5 -46 123.5 -46q64 0 111.5 29.5t72 78t24.5 103.5q0 73 -46.5 119t-123.5 46q-64 0 -111.5 -29.5t-72 -78t-24.5 -103.5q0 -73 46.5 -119z" />
    <glyph glyph-name="yen" unicode="&#xa5;" 
d="M1303 1176q12 -11 12 -40q0 -20 -6 -52q-7 -42 -17.5 -64t-25 -30t-38.5 -8h-45l-118 -142h58q27 0 39 -10.5t12 -38.5q0 -14 -5 -44q-9 -54 -26.5 -73t-52.5 -19h-179l-118 -143h252q27 0 39 -10.5t12 -37.5q0 -15 -5 -45q-9 -54 -26.5 -73t-52.5 -19h-286l-21 -122h206
q26 0 38 -10.5t12 -39.5q0 -20 -6 -53q-7 -42 -17 -64t-24.5 -30t-38.5 -8h-642q-27 0 -39 11t-12 40q0 25 5 51q11 61 29 82t53 21h186l21 122h-286q-28 0 -40 10.5t-12 38.5q0 15 5 43q10 55 27.5 74t52.5 19h256l-68 143h-183q-28 0 -40 10.5t-12 38.5q0 15 5 43
q9 54 27 73.5t53 19.5h62l-67 142h-50q-27 0 -39 10.5t-12 39.5q0 21 6 52q7 42 17.5 64t25 30.5t38.5 8.5h384q27 0 39 -11t12 -40q0 -20 -6 -52q-7 -42 -17.5 -64t-25 -30t-38.5 -8h-67l134 -292l239 292h-52q-27 0 -39 10.5t-12 39.5q0 21 6 52q7 42 17.5 64t25 30.5
t38.5 8.5h384q27 0 39 -11z" />
    <glyph glyph-name="brokenbar" unicode="&#xa6;" 
d="M878.5 1382.5q25.5 -11.5 25.5 -38.5q0 -8 -1 -13l-110 -623q-6 -33 -41.5 -48t-101.5 -15q-57 0 -82.5 11.5t-25.5 38.5q0 8 1 13l110 623q6 33 41.5 48t101.5 15q57 0 82.5 -11.5zM701.5 382.5q25.5 -11.5 25.5 -38.5q0 -8 -1 -13l-110 -623q-6 -33 -41.5 -48
t-101.5 -15q-57 0 -82.5 11.5t-25.5 38.5q0 8 1 13l110 623q6 33 41.5 48t101.5 15q57 0 82.5 -11.5z" />
    <glyph glyph-name="section" unicode="&#xa7;" 
d="M1134 1176.5q13 -10.5 13 -33.5q0 -5 -2 -21l-46 -262q-6 -34 -37.5 -48.5t-95.5 -14.5q-55 0 -77 11t-22 36q0 4 2 16l23 132h-193q-54 0 -78.5 -27t-24.5 -70q0 -27 13 -48t45 -38l266 -145q69 -38 108 -100.5t39 -140.5q0 -90 -42 -165t-118 -130q3 -19 3 -39
q0 -79 -35.5 -151.5t-112.5 -120t-194 -47.5h-404q-29 0 -42 10.5t-13 33.5q0 5 2 21l46 262q6 34 37.5 48.5t95.5 14.5q55 0 77 -11t22 -36q0 -4 -2 -16l-23 -132h193q54 0 78.5 27t24.5 70q0 27 -13 48t-45 38l-266 145q-69 38 -108 100.5t-39 140.5q0 90 41.5 164.5
t117.5 129.5q-2 13 -2 40q0 79 35.5 151.5t112.5 120t194 47.5h404q29 0 42 -10.5zM439 565q0 -31 16.5 -54t53.5 -44l242 -132q21 -12 39 -24q27 35 27 81q0 31 -16.5 54t-53.5 44l-242 132q-21 11 -39 24q-27 -33 -27 -81z" />
    <glyph glyph-name="dieresis" unicode="&#xa8;" 
d="M638 1307q37 -38 37 -93q0 -47 -23.5 -85.5t-63 -61t-83.5 -22.5q-57 0 -94.5 38t-37.5 93q0 47 24 85.5t63.5 61t83.5 22.5q57 0 94 -38zM1098 1307q37 -38 37 -93q0 -47 -23.5 -85.5t-63 -61t-83.5 -22.5q-57 0 -94.5 38t-37.5 93q0 47 24 85.5t63.5 61t83.5 22.5
q57 0 94 -38z" />
    <glyph glyph-name="copyright" unicode="&#xa9;" 
d="M1003 1142.5q113 -66.5 174.5 -183.5t61.5 -265q0 -182 -86 -347t-242.5 -267t-357.5 -102q-148 0 -261.5 67t-175 184.5t-61.5 263.5q0 182 86.5 347t243 267t357.5 102q148 0 261 -66.5zM457.5 976q-119.5 -80 -185.5 -209.5t-66 -271.5q0 -107 42.5 -189.5t124 -128.5
t193.5 -46q152 0 271 80t185 209.5t66 271.5q0 108 -42.5 190.5t-123.5 128t-193 45.5q-152 0 -271.5 -80zM817 926q46 -11 85 -32q30 -17 30 -44q0 -20 -16 -58q-26 -60 -61 -60q-5 0 -19 4q-75 28 -133 28q-79 0 -129 -53q-28 -30 -43.5 -73t-15.5 -89q0 -61 33.5 -94
t94.5 -33q57 0 143 28q11 4 20 4q15 0 23.5 -13.5t17.5 -45.5q8 -29 8 -47q0 -20 -9 -33t-30 -23q-46 -21 -96.5 -32t-97.5 -11q-84 0 -149 34t-101 97t-36 148q0 77 29 159.5t86 140.5q52 53 122 81t151 28q47 0 93 -11z" />
    <glyph glyph-name="ordfeminine" unicode="&#xaa;" 
d="M1098.5 640.5q8.5 -8.5 8.5 -31.5q0 -19 -4 -43q-8 -50 -21.5 -67t-40.5 -17h-18q-65 0 -108 29.5t-56 90.5q-112 -137 -273 -137q-88 0 -152.5 41t-98.5 111t-34 157q0 103 44.5 203.5t133.5 166t214 65.5q71 0 127 -32t84 -88l10 62q4 26 27.5 37.5t67.5 11.5
q45 0 62.5 -11.5t13.5 -37.5l-72 -411q-3 -18 -3 -33q0 -58 57 -58h4q19 0 27.5 -8.5zM747 676q49 36 75 92t26 115q0 72 -41 112t-106 40t-109.5 -40t-65.5 -98.5t-21 -113.5q0 -67 33.5 -105t93.5 -38q66 0 115 36z" />
    <glyph glyph-name="guillemotleft" unicode="&#xab;" 
d="M472 946q36 0 94 -49q55 -46 55 -86q0 -22 -17 -39l-228 -232l178 -274q10 -17 10 -30q0 -44 -74 -85q-54 -30 -88 -30q-30 0 -45 24l-245 397q-7 12 -7 23q0 15 12 27l320 339q15 15 35 15zM1012 946q36 0 94 -49q55 -46 55 -86q0 -22 -17 -39l-248 -252l158 -254
q10 -17 10 -31q0 -43 -74 -84q-54 -30 -88 -30q-30 0 -45 24l-225 377q-7 12 -7 23q0 15 12 27l340 359q15 15 35 15z" />
    <glyph glyph-name="logicalnot" unicode="&#xac;" 
d="M1153.5 834.5q13.5 -10.5 13.5 -34.5q0 -4 -2 -20l-83 -472q-6 -34 -39 -48.5t-104 -14.5q-61 0 -85 11t-24 36q0 4 2 16l57 322h-665q-26 0 -38 11t-12 41q0 22 6 56q7 45 17.5 67.5t25 31t38.5 8.5h850q29 0 42.5 -10.5z" />
    <glyph glyph-name="uni00AD" unicode="&#xad;" 
d="M1020 540q12 -11 12 -41q0 -26 -7 -61q-8 -47 -18.5 -71t-25.5 -32.5t-39 -8.5h-704q-26 0 -38 10.5t-12 40.5q0 26 7 61q8 47 19 71t25.5 33t38.5 9h704q26 0 38 -11z" />
    <glyph glyph-name="registered" unicode="&#xae;" 
d="M984 1278.5q94 -55.5 145 -153t51 -220.5q0 -151 -71.5 -289t-202 -223t-297.5 -85q-124 0 -218 56t-145.5 153.5t-51.5 219.5q0 152 72 289.5t202.5 222.5t297.5 85q124 0 218 -55.5zM529.5 1139q-99.5 -67 -155 -174.5t-55.5 -225.5q0 -89 35.5 -157.5t103.5 -107
t162 -38.5q126 0 225.5 67t154.5 174.5t55 225.5q0 90 -35.5 158.5t-103.5 106.5t-161 38q-126 0 -225.5 -67zM898 1042.5q48 -48.5 48 -127.5q0 -61 -34 -110.5t-102 -79.5l55 -78q11 -16 11 -28q0 -25 -48 -52q-33 -20 -52 -20t-35 25l-74 124h-66l-16 -90q-5 -30 -21 -42
t-60 -12q-35 0 -48.5 8t-13.5 26q0 6 2 20l75 432q5 28 19.5 40.5t42.5 12.5h180q89 0 137 -48.5zM624 825h82q48 0 69.5 23.5t21.5 52.5q0 24 -16 38t-45 14h-90z" />
    <glyph glyph-name="macron" unicode="&#xaf;" 
d="M1088 1264q12 -11 12 -40q0 -20 -6 -52q-7 -42 -17.5 -64t-25 -30t-38.5 -8h-562q-27 0 -39 10.5t-12 39.5q0 21 6 52q7 42 17.5 64t25 30.5t38.5 8.5h562q27 0 39 -11z" />
    <glyph glyph-name="degree" unicode="&#xb0;" 
d="M813 1172q67 -37 103.5 -103t36.5 -150q0 -98 -44 -179t-124.5 -128t-185.5 -47q-89 0 -156 37t-103.5 103t-36.5 150q0 98 44 179t124.5 128t185.5 47q89 0 156 -37zM551.5 961.5q-35.5 -36.5 -35.5 -91.5q0 -42 27 -68t72 -26q54 0 89.5 36.5t35.5 91.5q0 42 -27 68
t-72 26q-54 0 -89.5 -36.5z" />
    <glyph glyph-name="plusminus" unicode="&#xb1;" 
d="M823 1116q22 -10 22 -34q0 -5 -2 -19l-39 -218h269q26 0 38 -11.5t12 -42.5q0 -21 -6 -59q-8 -47 -18.5 -71t-25.5 -32.5t-39 -8.5h-269l-39 -219q-4 -24 -15 -37t-36 -19.5t-72 -6.5q-59 0 -81.5 10t-22.5 35q0 4 2 18l39 219h-268q-26 0 -38 10.5t-12 40.5q0 26 7 61
q8 47 18.5 71t25 33t38.5 9h268l39 218q4 24 15 37t36.5 19.5t72.5 6.5q59 0 81 -10zM1002 214q12 -11 12 -41q0 -26 -7 -61q-8 -47 -18.5 -71t-25 -32.5t-38.5 -8.5h-762q-27 0 -39 10.5t-12 41.5q0 16 7 60q8 47 19 71t25.5 33t38.5 9h762q26 0 38 -11z" />
    <glyph glyph-name="uni00B2" unicode="&#xb2;" 
d="M938 1303.5q61 -30.5 93 -84.5t32 -125q0 -64 -26 -113.5t-72 -90.5t-126 -96l-206 -141h220l8 46q4 25 24 36.5t70 11.5q52 0 73.5 -12t17.5 -36l-30 -170q-5 -25 -17 -35.5t-37 -10.5h-595q-40 0 -40 59q0 20 4 41q10 56 46 82l347 243q78 54 106.5 87t28.5 77
q0 41 -26 65t-74 24q-72 0 -136 -26l-16 -88q-5 -26 -24.5 -37t-69.5 -11q-52 0 -74 12t-17 36l32 178q4 29 39 45q70 32 147 48t151 16q86 0 147 -30.5z" />
    <glyph glyph-name="uni00B3" unicode="&#xb3;" 
d="M928.5 1306q66.5 -28 100.5 -78t34 -116q0 -152 -156 -215q49 -23 76 -64t27 -94q0 -71 -33.5 -132.5t-117.5 -101.5t-225 -40q-74 0 -150.5 15t-128.5 39q-30 14 -30 49q0 24 12 55q12 33 30 51t35 18q7 0 11 -2q51 -23 110 -37.5t113 -14.5q165 0 165 108q0 31 -24 48
t-69 17h-93q-19 0 -28 11t-9 36q0 19 4 39q8 46 23.5 66t39.5 20h74q73 0 107 30t34 73q0 36 -29 55.5t-88 19.5q-67 0 -142 -26l-11 -58q-4 -25 -24 -36.5t-70 -11.5q-52 0 -73.5 12t-17.5 36l28 158q7 33 39 45q69 26 145 40t150 14q95 0 161.5 -28z" />
    <glyph glyph-name="acute" unicode="&#xb4;" 
d="M986 1400q49 0 93 -99q26 -61 26 -97q0 -38 -29 -46l-480 -125q-6 -2 -16 -2q-18 0 -31.5 11t-20.5 30q-5 13 -5 25q0 14 7.5 27t20.5 21l408 247q14 8 27 8z" />
    <glyph glyph-name="uni00B5" unicode="&#xb5;" 
d="M1127 914q13 -10 13 -32q0 -5 -2 -21l-141 -798q-6 -34 -23 -48.5t-51 -14.5h-84q-28 0 -41 10t-13 32q0 5 2 21l17 98q-74 -89 -164 -136t-188 -47q-50 0 -89 15l-57 -323q-6 -34 -23 -48.5t-51 -14.5h-124q-28 0 -41 10t-13 32q0 5 2 21l210 1191q6 34 23 48.5t51 14.5
h124q28 0 41 -10t13 -32q0 -5 -2 -21l-86 -488q-5 -30 -5 -50q0 -108 114 -108q58 0 120.5 43t109 115.5t60.5 154.5l59 333q6 34 23 48.5t51 14.5h124q28 0 41 -10z" />
    <glyph glyph-name="paragraph" unicode="&#xb6;" 
d="M1253 1176q12 -11 12 -40q0 -20 -6 -52q-7 -42 -17.5 -64t-25 -30t-38.5 -8h-66l-235 -1329q-6 -33 -36 -48t-87 -15q-49 0 -69 10.5t-20 35.5q0 5 2 17l235 1329h-160l-235 -1329q-6 -33 -36 -48t-87 -15q-49 0 -69 10.5t-20 35.5q0 5 2 17l139 787q-125 20 -195.5 103
t-70.5 208q0 118 54.5 217.5t165 159t268.5 59.5h556q27 0 39 -11z" />
    <glyph glyph-name="periodcentered" unicode="&#xb7;" 
d="M800.5 755q39.5 -15 33.5 -48l-45 -254q-6 -34 -44 -48.5t-124 -14.5q-88 0 -128 15t-34 48l45 254q6 34 44 48.5t124 14.5q89 0 128.5 -15z" />
    <glyph glyph-name="cedilla" unicode="&#xb8;" 
d="M742.5 -133q49.5 -43 49.5 -117q0 -36 -12 -74t-36 -65q-71 -83 -257 -83q-149 0 -248 41q-18 7 -18 32q0 22 14 53q12 27 27 43.5t31 16.5q7 0 11 -2q42 -17 76.5 -25.5t80.5 -8.5q52 0 74 18t22 46q0 42 -65 42q-21 0 -53 -5q-13 -3 -23 4.5t-10 24.5q0 8 1 12l36 208
h175l-21 -121q96 3 145.5 -40z" />
    <glyph glyph-name="uni00B9" unicode="&#xb9;" 
d="M1004 641.5q10 -11.5 10 -36.5q0 -9 -4 -37q-8 -45 -23.5 -65t-43.5 -20h-564q-21 0 -30.5 11t-9.5 34q0 19 4 40q8 45 23 65t43 20h178l77 437l-148 -70q-18 -8 -30 -8q-17 0 -31 14t-27 46q-12 30 -12 50q0 18 10 30.5t31 22.5l341 151q19 8 38 8q24 0 40 -12t16 -35
q0 -8 -1 -12l-109 -622h191q21 0 31 -11.5z" />
    <glyph glyph-name="ordmasculine" unicode="&#xba;" 
d="M920.5 1169q74.5 -40 114.5 -111.5t40 -163.5q0 -104 -47.5 -202.5t-146 -162.5t-243.5 -64q-102 0 -176.5 40t-114 111.5t-39.5 163.5q0 107 48.5 205.5t147.5 161t241 62.5q101 0 175.5 -40zM613.5 1000.5q-48.5 -34.5 -74.5 -90.5t-26 -120q0 -70 38.5 -110t105.5 -40
q64 0 112.5 34t74 90t25.5 119q0 70 -38 111t-105 41q-64 0 -112.5 -34.5z" />
    <glyph glyph-name="guillemotright" unicode="&#xbb;" 
d="M650 523q0 -15 -12 -27l-340 -359q-15 -15 -35 -15q-36 0 -94 49q-55 46 -55 86q0 22 17 39l248 252l-158 254q-10 17 -10 31q0 43 74 84q54 30 88 30q30 0 45 -24l225 -377q7 -12 7 -23zM1170 503q0 -15 -12 -27l-320 -339q-15 -15 -35 -15q-36 0 -94 49q-55 46 -55 86
q0 22 17 39l228 232l-178 274q-10 17 -10 30q0 44 74 85q54 30 88 30q30 0 45 -24l245 -397q7 -12 7 -23z" />
    <glyph glyph-name="onequarter" unicode="&#xbc;" 
d="M69 684q-17 0 -25 9t-8 29q0 14 3 33q7 37 20 54t36 17h148l65 364l-124 -58q-16 -7 -25 -7q-14 0 -26 11.5t-23 38.5q-10 27 -10 41q0 16 8.5 26.5t26.5 18.5l284 126q14 7 32 7q23 0 36.5 -13.5t9.5 -36.5l-91 -518h159q34 0 34 -40q0 -13 -3 -31q-7 -38 -20 -54.5
t-36 -16.5h-471zM1203 750q0 -26 -25 -39l-1029 -521q-12 -5 -21 -5q-26 0 -48 45q-14 28 -14 50q0 26 25 39l1029 521q12 5 21 5q26 0 48 -45q14 -28 14 -50zM1200 69q8 -10 8 -31q0 -12 -3 -30q-7 -37 -20.5 -54t-36.5 -17h-74l-22 -121q-4 -21 -21.5 -30.5t-59.5 -9.5
q-48 0 -68 10t-16 30l21 121h-291q-20 0 -33.5 28.5t-13.5 64.5q0 16 5.5 28t18.5 25l381 383q34 37 106 37q45 0 66.5 -12.5t17.5 -33.5l-67 -378h76q18 0 26 -10zM933 79l52 212l-202 -212h150z" />
    <glyph glyph-name="onehalf" unicode="&#xbd;" 
d="M69 684q-17 0 -25 9t-8 29q0 14 3 33q7 37 20 54t36 17h148l65 364l-124 -58q-16 -7 -25 -7q-14 0 -26 11.5t-23 38.5q-10 27 -10 41q0 16 8.5 26.5t26.5 18.5l284 126q14 7 32 7q23 0 36.5 -13.5t9.5 -36.5l-91 -518h159q34 0 34 -40q0 -13 -3 -31q-7 -38 -20 -54.5
t-36 -16.5h-471zM1203 800q0 -26 -25 -39l-1029 -521q-12 -5 -21 -5q-26 0 -48 45q-14 28 -14 50q0 26 25 39l1029 521q12 5 21 5q26 0 48 -45q14 -28 14 -50zM1185 -5.5q18 -9.5 14 -30.5l-25 -142q-4 -20 -14 -29t-31 -9h-497q-33 0 -33 49q0 14 3 34q8 47 39 69l290 202
q65 45 88.5 72.5t23.5 64.5q0 34 -21.5 54t-61.5 20q-61 0 -114 -21l-13 -74q-4 -21 -20.5 -30.5t-58.5 -9.5q-84 0 -76 40l27 149q5 25 33 37q58 27 122.5 40.5t125.5 13.5q108 0 168 -55t60 -146q0 -53 -22 -94.5t-60.5 -76t-104.5 -79.5l-172 -117h183l7 38
q3 21 19.5 30.5t58.5 9.5q44 0 62 -9.5z" />
    <glyph glyph-name="threequarters" unicode="&#xbe;" 
d="M596.5 1343.5q64.5 -50.5 64.5 -135.5q0 -127 -131 -179q41 -19 63.5 -53t22.5 -79q0 -94 -71.5 -161t-242.5 -67q-61 0 -125 12.5t-108 32.5q-25 11 -25 42q0 15 10 45q10 27 25 42t29 15q4 0 10 -2q42 -19 91.5 -31t94.5 -12q138 0 138 90q0 26 -20 40t-58 14h-77
q-31 0 -31 40q0 14 3 32q7 38 20 55t33 17h61q61 0 89.5 25t28.5 61q0 30 -24.5 46t-73.5 16q-56 0 -118 -21l-9 -49q-4 -21 -20.5 -30.5t-58.5 -9.5q-82 0 -76 40l24 132q5 27 32 38q119 45 246 45q119 0 183.5 -50.5zM1141 855q26 0 48 -45q14 -28 14 -50q0 -26 -25 -39
l-1029 -521q-12 -5 -21 -5q-26 0 -48 45q-14 28 -14 50q0 26 25 39l1029 521q12 5 21 5zM1147.5 490.5q21.5 -12.5 17.5 -33.5l-67 -378h76q18 0 26 -10t8 -31q0 -12 -3 -30q-7 -37 -20.5 -54t-36.5 -17h-74l-22 -121q-4 -21 -21.5 -30.5t-59.5 -9.5q-48 0 -68 10t-16 30
l21 121h-291q-20 0 -33.5 28.5t-13.5 64.5q0 16 5.5 28t18.5 25l381 383q34 37 106 37q45 0 66.5 -12.5zM783 79h150l52 212z" />
    <glyph glyph-name="questiondown" unicode="&#xbf;" 
d="M547 649q-34 15 -28 48l31 174q6 34 40 48.5t110 14.5q78 0 112 -15t28 -48l-31 -174q-6 -34 -40 -48.5t-110 -14.5q-78 0 -112 15zM298.5 -306.5q-83.5 38.5 -126.5 109t-43 164.5q0 143 88 240t284 139l24 91q6 25 30.5 36.5t79.5 11.5t74.5 -11.5t17.5 -36.5l-17 -208
q-3 -44 -39 -51l-113 -20q-85 -15 -129 -55t-44 -105q0 -58 35 -92t103 -34q79 0 158 30l15 92q5 35 31 49t88 14q58 0 85 -12t27 -39q0 -8 -1 -12l-35 -200q-8 -43 -52 -61q-183 -78 -340 -78q-117 0 -200.5 38.5z" />
    <glyph glyph-name="Agrave" unicode="&#xc0;" 
d="M894 1171.5q22 -15.5 27 -49.5l129 -917h91q27 0 39 -10.5t12 -39.5q0 -20 -6 -52q-7 -42 -17.5 -64t-25 -30.5t-38.5 -8.5h-424q-27 0 -39 11t-12 40q0 21 6 52q7 42 17.5 64t25 30t38.5 8h90l-20 145h-364l-70 -145h70q27 0 39 -10.5t12 -39.5q0 -20 -6 -52
q-7 -42 -17.5 -64t-25 -30.5t-38.5 -8.5h-404q-27 0 -38.5 11t-11.5 41q0 16 5 51q7 42 17.5 64t25 30t38.5 8h80l390 777h-163q-27 0 -39 11t-12 40q0 21 6 52q7 42 17.5 64t25 30t38.5 8h470q40 0 62 -15.5zM716 982l-199 -427h249l-44 427h-6zM951.5 1394
q7.5 -13 7.5 -27q0 -12 -5 -25q-7 -19 -20.5 -30t-31.5 -11q-10 0 -16 2l-480 125q-29 8 -29 46q0 36 26 97q44 99 93 99q13 0 27 -8l408 -247q13 -8 20.5 -21z" />
    <glyph glyph-name="Aacute" unicode="&#xc1;" 
d="M894 1171.5q22 -15.5 27 -49.5l129 -917h91q27 0 39 -10.5t12 -39.5q0 -20 -6 -52q-7 -42 -17.5 -64t-25 -30.5t-38.5 -8.5h-424q-27 0 -39 11t-12 40q0 21 6 52q7 42 17.5 64t25 30t38.5 8h90l-20 145h-364l-70 -145h70q27 0 39 -10.5t12 -39.5q0 -20 -6 -52
q-7 -42 -17.5 -64t-25 -30.5t-38.5 -8.5h-404q-27 0 -38.5 11t-11.5 41q0 16 5 51q7 42 17.5 64t25 30t38.5 8h80l390 777h-163q-27 0 -39 11t-12 40q0 21 6 52q7 42 17.5 64t25 30t38.5 8h470q40 0 62 -15.5zM716 982l-199 -427h249l-44 427h-6zM926 1670q49 0 93 -99
q26 -61 26 -97q0 -38 -29 -46l-480 -125q-6 -2 -16 -2q-18 0 -31.5 11t-20.5 30q-5 13 -5 25q0 14 7.5 27t20.5 21l408 247q14 8 27 8z" />
    <glyph glyph-name="Acircumflex" unicode="&#xc2;" 
d="M894 1171.5q22 -15.5 27 -49.5l129 -917h91q27 0 39 -10.5t12 -39.5q0 -20 -6 -52q-7 -42 -17.5 -64t-25 -30.5t-38.5 -8.5h-424q-27 0 -39 11t-12 40q0 21 6 52q7 42 17.5 64t25 30t38.5 8h90l-20 145h-364l-70 -145h70q27 0 39 -10.5t12 -39.5q0 -20 -6 -52
q-7 -42 -17.5 -64t-25 -30.5t-38.5 -8.5h-404q-27 0 -38.5 11t-11.5 41q0 16 5 51q7 42 17.5 64t25 30t38.5 8h80l390 777h-163q-27 0 -39 11t-12 40q0 21 6 52q7 42 17.5 64t25 30t38.5 8h470q40 0 62 -15.5zM716 982l-199 -427h249l-44 427h-6zM823 1658l251 -261
q15 -15 15 -35q0 -16 -13 -37q-20 -32 -48 -32q-12 0 -24 6l-255 134l-303 -134q-12 -5 -20 -5q-25 0 -44 35q-11 19 -11 34q0 19 19 34l323 261q24 18 58 18q37 0 52 -18z" />
    <glyph glyph-name="Atilde" unicode="&#xc3;" 
d="M894 1171.5q22 -15.5 27 -49.5l129 -917h91q27 0 39 -10.5t12 -39.5q0 -20 -6 -52q-7 -42 -17.5 -64t-25 -30.5t-38.5 -8.5h-424q-27 0 -39 11t-12 40q0 21 6 52q7 42 17.5 64t25 30t38.5 8h90l-20 145h-364l-70 -145h70q27 0 39 -10.5t12 -39.5q0 -20 -6 -52
q-7 -42 -17.5 -64t-25 -30.5t-38.5 -8.5h-404q-27 0 -38.5 11t-11.5 41q0 16 5 51q7 42 17.5 64t25 30t38.5 8h80l390 777h-163q-27 0 -39 11t-12 40q0 21 6 52q7 42 17.5 64t25 30t38.5 8h470q40 0 62 -15.5zM716 982l-199 -427h249l-44 427h-6zM641.5 1574.5
q35.5 -9.5 84.5 -28.5q48 -18 78.5 -27t62.5 -9q63 0 122 31q14 7 23 7q31 0 55 -44q15 -28 15 -51q0 -26 -19 -42q-111 -93 -203 -93q-38 0 -73.5 10t-84.5 29q-45 17 -76.5 26t-63.5 9q-65 0 -124 -31q-11 -6 -22 -6q-30 0 -54 44q-16 29 -16 52q0 25 18 40q106 93 205 93
q37 0 72.5 -9.5z" />
    <glyph glyph-name="Adieresis" unicode="&#xc4;" 
d="M894 1171.5q22 -15.5 27 -49.5l129 -917h91q27 0 39 -10.5t12 -39.5q0 -20 -6 -52q-7 -42 -17.5 -64t-25 -30.5t-38.5 -8.5h-424q-27 0 -39 11t-12 40q0 21 6 52q7 42 17.5 64t25 30t38.5 8h90l-20 145h-364l-70 -145h70q27 0 39 -10.5t12 -39.5q0 -20 -6 -52
q-7 -42 -17.5 -64t-25 -30.5t-38.5 -8.5h-404q-27 0 -38.5 11t-11.5 41q0 16 5 51q7 42 17.5 64t25 30t38.5 8h80l390 777h-163q-27 0 -39 11t-12 40q0 21 6 52q7 42 17.5 64t25 30t38.5 8h470q40 0 62 -15.5zM716 982l-199 -427h249l-44 427h-6zM638 1577q37 -38 37 -93
q0 -47 -23.5 -85.5t-63 -61t-83.5 -22.5q-57 0 -94.5 38t-37.5 93q0 47 24 85.5t63.5 61t83.5 22.5q57 0 94 -38zM1098 1577q37 -38 37 -93q0 -47 -23.5 -85.5t-63 -61t-83.5 -22.5q-57 0 -94.5 38t-37.5 93q0 47 24 85.5t63.5 61t83.5 22.5q57 0 94 -38z" />
    <glyph glyph-name="Aring" unicode="&#xc5;" 
d="M894 1171.5q22 -15.5 27 -49.5l129 -917h91q27 0 39 -10.5t12 -39.5q0 -20 -6 -52q-7 -42 -17.5 -64t-25 -30.5t-38.5 -8.5h-424q-27 0 -39 11t-12 40q0 21 6 52q7 42 17.5 64t25 30t38.5 8h90l-20 145h-364l-70 -145h70q27 0 39 -10.5t12 -39.5q0 -20 -6 -52
q-7 -42 -17.5 -64t-25 -30.5t-38.5 -8.5h-404q-27 0 -38.5 11t-11.5 41q0 16 5 51q7 42 17.5 64t25 30t38.5 8h80l390 777h-163q-27 0 -39 11t-12 40q0 21 6 52q7 42 17.5 64t25 30t38.5 8h470q40 0 62 -15.5zM716 982l-199 -427h249l-44 427h-6zM927 1766q52 -31 82 -83.5
t30 -114.5q0 -73 -38.5 -141t-107.5 -111t-154 -43q-64 0 -116 30.5t-82 83t-30 114.5q0 76 39.5 144t108.5 110t152 42q64 0 116 -31zM731.5 1620.5q-28.5 -17.5 -45 -45.5t-16.5 -58q0 -37 24.5 -61t62.5 -24q32 0 60 17t45 45t17 59q0 36 -24 60.5t-62 24.5
q-33 0 -61.5 -17.5z" />
    <glyph glyph-name="AE" unicode="&#xc6;" 
d="M1276 1176.5q13 -10.5 13 -33.5q0 -5 -2 -21l-48 -272q-6 -34 -34.5 -48.5t-88.5 -14.5q-50 0 -69.5 10t-19.5 34q0 5 2 19l22 122h-170l-43 -243h114q26 0 38 -12t12 -42q0 -21 -6 -54q-11 -62 -29 -84.5t-53 -22.5h-114l-53 -299h180l31 172q6 34 35 48.5t92 14.5
q54 0 74.5 -10t20.5 -35q0 -4 -2 -18l-57 -322q-6 -35 -24 -50t-52 -15h-500q-29 0 -42.5 10.5t-13.5 34.5q0 4 2 20l47 265h-197l-54 -125h41q26 0 38 -10.5t12 -39.5q0 -20 -6 -53q-7 -42 -17 -64t-24.5 -30t-38.5 -8h-329q-27 0 -39 10.5t-12 39.5q0 21 6 52q10 61 28 82
t53 21h53l336 777h-102q-27 0 -39 10.5t-12 39.5q0 21 6 52q7 42 17.5 64t25 30.5t38.5 8.5h912q29 0 42 -10.5zM599 972l-168 -427h145l75 427h-52z" />
    <glyph glyph-name="Ccedilla" unicode="&#xc7;" 
d="M1226 1198q22 -11 22 -36q0 -4 -2 -16l-68 -384q-6 -34 -39 -48.5t-104 -14.5q-61 0 -85 11t-24 36q0 4 2 16q5 32 5 54q0 77 -45 121.5t-131 44.5q-130 0 -211.5 -82.5t-116.5 -199t-35 -225.5q0 -130 60.5 -200t175.5 -70q86 0 166.5 24t185.5 73q14 7 30 7
q46 0 70 -84q11 -41 11 -66q0 -28 -12 -46t-36 -29q-204 -93 -395 -105l-13 -72q96 3 145.5 -40t49.5 -117q0 -36 -12 -74t-36 -65q-71 -83 -257 -83q-149 0 -248 41q-18 7 -18 32q0 22 14 53q12 27 27 43.5t31 16.5q7 0 11 -2q42 -17 76.5 -25.5t80.5 -8.5q52 0 74 18
t22 46q0 42 -65 42q-21 0 -53 -5q-13 -3 -23 4.5t-10 24.5q0 8 1 12l30 171q-108 24 -186.5 89t-120.5 165t-42 226q0 181 73 351.5t216 278.5t340 108q90 0 153 -35.5t93 -95.5l13 68q7 34 38 48.5t95 14.5q55 0 77 -11z" />
    <glyph glyph-name="Egrave" unicode="&#xc8;" 
d="M1216 1176.5q13 -10.5 13 -33.5q0 -5 -2 -21l-53 -302q-6 -34 -37.5 -48.5t-95.5 -14.5q-55 0 -77 11t-22 36q0 4 2 16l27 152h-400l-45 -253h244q26 0 38 -12t12 -42q0 -21 -6 -54q-11 -62 -29 -84.5t-53 -22.5h-244l-51 -289h410l36 202q6 34 38 48.5t99 14.5
q58 0 81.5 -11t23.5 -36q0 -4 -2 -16l-62 -352q-6 -35 -24 -50t-52 -15h-932q-27 0 -39 11t-12 40q0 25 5 51q11 61 29 82t53 21h97l137 777h-97q-27 0 -39 10.5t-12 39.5q0 21 6 52q7 42 17.5 64t25 30.5t38.5 8.5h912q29 0 42 -10.5zM1011.5 1394q7.5 -13 7.5 -27
q0 -12 -5 -25q-7 -19 -20.5 -30t-31.5 -11q-10 0 -16 2l-480 125q-29 8 -29 46q0 36 26 97q44 99 93 99q13 0 27 -8l408 -247q13 -8 20.5 -21z" />
    <glyph glyph-name="Eacute" unicode="&#xc9;" 
d="M1216 1176.5q13 -10.5 13 -33.5q0 -5 -2 -21l-53 -302q-6 -34 -37.5 -48.5t-95.5 -14.5q-55 0 -77 11t-22 36q0 4 2 16l27 152h-400l-45 -253h244q26 0 38 -12t12 -42q0 -21 -6 -54q-11 -62 -29 -84.5t-53 -22.5h-244l-51 -289h410l36 202q6 34 38 48.5t99 14.5
q58 0 81.5 -11t23.5 -36q0 -4 -2 -16l-62 -352q-6 -35 -24 -50t-52 -15h-932q-27 0 -39 11t-12 40q0 25 5 51q11 61 29 82t53 21h97l137 777h-97q-27 0 -39 10.5t-12 39.5q0 21 6 52q7 42 17.5 64t25 30.5t38.5 8.5h912q29 0 42 -10.5zM986 1670q49 0 93 -99q26 -61 26 -97
q0 -38 -29 -46l-480 -125q-6 -2 -16 -2q-18 0 -31.5 11t-20.5 30q-5 13 -5 25q0 14 7.5 27t20.5 21l408 247q14 8 27 8z" />
    <glyph glyph-name="Ecircumflex" unicode="&#xca;" 
d="M1216 1176.5q13 -10.5 13 -33.5q0 -5 -2 -21l-53 -302q-6 -34 -37.5 -48.5t-95.5 -14.5q-55 0 -77 11t-22 36q0 4 2 16l27 152h-400l-45 -253h244q26 0 38 -12t12 -42q0 -21 -6 -54q-11 -62 -29 -84.5t-53 -22.5h-244l-51 -289h410l36 202q6 34 38 48.5t99 14.5
q58 0 81.5 -11t23.5 -36q0 -4 -2 -16l-62 -352q-6 -35 -24 -50t-52 -15h-932q-27 0 -39 11t-12 40q0 25 5 51q11 61 29 82t53 21h97l137 777h-97q-27 0 -39 10.5t-12 39.5q0 21 6 52q7 42 17.5 64t25 30.5t38.5 8.5h912q29 0 42 -10.5zM873 1658l251 -261q15 -15 15 -35
q0 -16 -13 -37q-20 -32 -48 -32q-12 0 -24 6l-255 134l-303 -134q-12 -5 -20 -5q-25 0 -44 35q-11 19 -11 34q0 19 19 34l323 261q24 18 58 18q37 0 52 -18z" />
    <glyph glyph-name="Edieresis" unicode="&#xcb;" 
d="M1216 1176.5q13 -10.5 13 -33.5q0 -5 -2 -21l-53 -302q-6 -34 -37.5 -48.5t-95.5 -14.5q-55 0 -77 11t-22 36q0 4 2 16l27 152h-400l-45 -253h244q26 0 38 -12t12 -42q0 -21 -6 -54q-11 -62 -29 -84.5t-53 -22.5h-244l-51 -289h410l36 202q6 34 38 48.5t99 14.5
q58 0 81.5 -11t23.5 -36q0 -4 -2 -16l-62 -352q-6 -35 -24 -50t-52 -15h-932q-27 0 -39 11t-12 40q0 25 5 51q11 61 29 82t53 21h97l137 777h-97q-27 0 -39 10.5t-12 39.5q0 21 6 52q7 42 17.5 64t25 30.5t38.5 8.5h912q29 0 42 -10.5zM678 1577q37 -38 37 -93
q0 -47 -23.5 -85.5t-63 -61t-83.5 -22.5q-57 0 -94.5 38t-37.5 93q0 47 24 85.5t63.5 61t83.5 22.5q57 0 94 -38zM1138 1577q37 -38 37 -93q0 -47 -23.5 -85.5t-63 -61t-83.5 -22.5q-57 0 -94.5 38t-37.5 93q0 47 24 85.5t63.5 61t83.5 22.5q57 0 94 -38z" />
    <glyph glyph-name="Igrave" unicode="&#xcc;" 
d="M1153 1176q12 -11 12 -40q0 -20 -6 -52q-7 -42 -17.5 -64t-25 -30t-38.5 -8h-236l-137 -777h256q26 0 38 -10.5t12 -39.5q0 -20 -6 -53q-7 -42 -17 -64t-24.5 -30t-38.5 -8h-742q-27 0 -39 11t-12 40q0 25 5 51q11 61 29 82t53 21h236l137 777h-256q-27 0 -39 10.5
t-12 39.5q0 21 6 52q7 42 17.5 64t25 30.5t38.5 8.5h742q27 0 39 -11zM991.5 1394q7.5 -13 7.5 -27q0 -12 -5 -25q-7 -19 -20.5 -30t-31.5 -11q-10 0 -16 2l-480 125q-29 8 -29 46q0 36 26 97q44 99 93 99q13 0 27 -8l408 -247q13 -8 20.5 -21z" />
    <glyph glyph-name="Iacute" unicode="&#xcd;" 
d="M1153 1176q12 -11 12 -40q0 -20 -6 -52q-7 -42 -17.5 -64t-25 -30t-38.5 -8h-236l-137 -777h256q26 0 38 -10.5t12 -39.5q0 -20 -6 -53q-7 -42 -17 -64t-24.5 -30t-38.5 -8h-742q-27 0 -39 11t-12 40q0 25 5 51q11 61 29 82t53 21h236l137 777h-256q-27 0 -39 10.5
t-12 39.5q0 21 6 52q7 42 17.5 64t25 30.5t38.5 8.5h742q27 0 39 -11zM996 1670q49 0 93 -99q26 -61 26 -97q0 -38 -29 -46l-480 -125q-6 -2 -16 -2q-18 0 -31.5 11t-20.5 30q-5 13 -5 25q0 14 7.5 27t20.5 21l408 247q14 8 27 8z" />
    <glyph glyph-name="Icircumflex" unicode="&#xce;" 
d="M1153 1176q12 -11 12 -40q0 -20 -6 -52q-7 -42 -17.5 -64t-25 -30t-38.5 -8h-236l-137 -777h256q26 0 38 -10.5t12 -39.5q0 -20 -6 -53q-7 -42 -17 -64t-24.5 -30t-38.5 -8h-742q-27 0 -39 11t-12 40q0 25 5 51q11 61 29 82t53 21h236l137 777h-256q-27 0 -39 10.5
t-12 39.5q0 21 6 52q7 42 17.5 64t25 30.5t38.5 8.5h742q27 0 39 -11zM853 1658l251 -261q15 -15 15 -35q0 -16 -13 -37q-20 -32 -48 -32q-12 0 -24 6l-255 134l-303 -134q-12 -5 -20 -5q-25 0 -44 35q-11 19 -11 34q0 19 19 34l323 261q24 18 58 18q37 0 52 -18z" />
    <glyph glyph-name="Idieresis" unicode="&#xcf;" 
d="M1153 1176q12 -11 12 -40q0 -20 -6 -52q-7 -42 -17.5 -64t-25 -30t-38.5 -8h-236l-137 -777h256q26 0 38 -10.5t12 -39.5q0 -20 -6 -53q-7 -42 -17 -64t-24.5 -30t-38.5 -8h-742q-27 0 -39 11t-12 40q0 25 5 51q11 61 29 82t53 21h236l137 777h-256q-27 0 -39 10.5
t-12 39.5q0 21 6 52q7 42 17.5 64t25 30.5t38.5 8.5h742q27 0 39 -11zM668 1577q37 -38 37 -93q0 -47 -23.5 -85.5t-63 -61t-83.5 -22.5q-57 0 -94.5 38t-37.5 93q0 47 24 85.5t63.5 61t83.5 22.5q57 0 94 -38zM1128 1577q37 -38 37 -93q0 -47 -23.5 -85.5t-63 -61
t-83.5 -22.5q-57 0 -94.5 38t-37.5 93q0 47 24 85.5t63.5 61t83.5 22.5q57 0 94 -38z" />
    <glyph glyph-name="Eth" unicode="&#xd0;" 
d="M973 1131q109 -56 167 -161.5t58 -251.5q0 -158 -57.5 -321t-203.5 -280t-393 -117h-491q-27 0 -39 11t-12 40q0 25 5 51q11 61 29 82t53 21h97l51 289h-117q-27 0 -38.5 11t-11.5 42q0 22 6 59q8 47 19 71t25.5 33t38.5 9h118l46 263h-97q-27 0 -39 10.5t-12 39.5
q0 21 6 52q7 42 17.5 64t25 30.5t38.5 8.5h451q151 0 260 -56zM767.5 290q87.5 75 126 188t38.5 234q0 129 -64.5 194.5t-192.5 65.5h-104l-44 -253h134q26 0 38 -11t12 -41q0 -26 -7 -61q-8 -47 -18.5 -71t-25 -32.5t-38.5 -8.5h-135l-49 -279h104q138 0 225.5 75z" />
    <glyph glyph-name="Ntilde" unicode="&#xd1;" 
d="M1313 1176q12 -11 12 -40q0 -20 -6 -52q-7 -42 -17.5 -64t-25 -30t-38.5 -8h-57l-166 -938q-6 -33 -33.5 -49.5t-87.5 -16.5q-46 0 -67 12.5t-32 40.5l-315 765h-4l-104 -591h111q26 0 38 -10.5t12 -39.5q0 -20 -6 -53q-7 -42 -17 -64t-24.5 -30t-38.5 -8h-404
q-27 0 -39 11t-12 40q0 25 5 51q11 61 29 82t53 21h67l137 777h-67q-27 0 -39 10.5t-12 39.5q0 21 6 52q7 42 17.5 64t25 30.5t38.5 8.5h264q40 0 51 -27l290 -707h4l94 529h-92q-27 0 -39 10.5t-12 39.5q0 21 6 52q7 42 17.5 64t25 30.5t38.5 8.5h375q27 0 39 -11z
M711.5 1574.5q35.5 -9.5 84.5 -28.5q48 -18 78.5 -27t62.5 -9q63 0 122 31q14 7 23 7q31 0 55 -44q15 -28 15 -51q0 -26 -19 -42q-111 -93 -203 -93q-38 0 -73.5 10t-84.5 29q-45 17 -76.5 26t-63.5 9q-65 0 -124 -31q-11 -6 -22 -6q-30 0 -54 44q-16 29 -16 52q0 25 18 40
q106 93 205 93q37 0 72.5 -9.5z" />
    <glyph glyph-name="Ograve" unicode="&#xd2;" 
d="M986 1148.5q107 -60.5 165 -172t58 -260.5q0 -123 -38 -254t-109 -231q-86 -123 -214.5 -188t-287.5 -65q-142 0 -249 60.5t-165 172t-58 260.5q0 123 38 254t109 231q86 123 214.5 188t287.5 65q142 0 249 -60.5zM462 849q-52 -73 -80.5 -178.5t-28.5 -203.5
q0 -127 57 -194.5t170 -67.5q159 0 255 133q52 73 80.5 178.5t28.5 203.5q0 127 -57 194.5t-170 67.5q-159 0 -255 -133zM1001.5 1394q7.5 -13 7.5 -27q0 -12 -5 -25q-7 -19 -20.5 -30t-31.5 -11q-10 0 -16 2l-480 125q-29 8 -29 46q0 36 26 97q44 99 93 99q13 0 27 -8
l408 -247q13 -8 20.5 -21z" />
    <glyph glyph-name="Oacute" unicode="&#xd3;" 
d="M986 1148.5q107 -60.5 165 -172t58 -260.5q0 -123 -38 -254t-109 -231q-86 -123 -214.5 -188t-287.5 -65q-142 0 -249 60.5t-165 172t-58 260.5q0 123 38 254t109 231q86 123 214.5 188t287.5 65q142 0 249 -60.5zM462 849q-52 -73 -80.5 -178.5t-28.5 -203.5
q0 -127 57 -194.5t170 -67.5q159 0 255 133q52 73 80.5 178.5t28.5 203.5q0 127 -57 194.5t-170 67.5q-159 0 -255 -133zM976 1670q49 0 93 -99q26 -61 26 -97q0 -38 -29 -46l-480 -125q-6 -2 -16 -2q-18 0 -31.5 11t-20.5 30q-5 13 -5 25q0 14 7.5 27t20.5 21l408 247
q14 8 27 8z" />
    <glyph glyph-name="Ocircumflex" unicode="&#xd4;" 
d="M986 1148.5q107 -60.5 165 -172t58 -260.5q0 -123 -38 -254t-109 -231q-86 -123 -214.5 -188t-287.5 -65q-142 0 -249 60.5t-165 172t-58 260.5q0 123 38 254t109 231q86 123 214.5 188t287.5 65q142 0 249 -60.5zM462 849q-52 -73 -80.5 -178.5t-28.5 -203.5
q0 -127 57 -194.5t170 -67.5q159 0 255 133q52 73 80.5 178.5t28.5 203.5q0 127 -57 194.5t-170 67.5q-159 0 -255 -133zM853 1658l251 -261q15 -15 15 -35q0 -16 -13 -37q-20 -32 -48 -32q-12 0 -24 6l-255 134l-303 -134q-12 -5 -20 -5q-25 0 -44 35q-11 19 -11 34
q0 19 19 34l323 261q24 18 58 18q37 0 52 -18z" />
    <glyph glyph-name="Otilde" unicode="&#xd5;" 
d="M986 1148.5q107 -60.5 165 -172t58 -260.5q0 -123 -38 -254t-109 -231q-86 -123 -214.5 -188t-287.5 -65q-142 0 -249 60.5t-165 172t-58 260.5q0 123 38 254t109 231q86 123 214.5 188t287.5 65q142 0 249 -60.5zM462 849q-52 -73 -80.5 -178.5t-28.5 -203.5
q0 -127 57 -194.5t170 -67.5q159 0 255 133q52 73 80.5 178.5t28.5 203.5q0 127 -57 194.5t-170 67.5q-159 0 -255 -133zM701.5 1574.5q35.5 -9.5 84.5 -28.5q48 -18 78.5 -27t62.5 -9q63 0 122 31q14 7 23 7q31 0 55 -44q15 -28 15 -51q0 -26 -19 -42q-111 -93 -203 -93
q-38 0 -73.5 10t-84.5 29q-45 17 -76.5 26t-63.5 9q-65 0 -124 -31q-11 -6 -22 -6q-30 0 -54 44q-16 29 -16 52q0 25 18 40q106 93 205 93q37 0 72.5 -9.5z" />
    <glyph glyph-name="Odieresis" unicode="&#xd6;" 
d="M986 1148.5q107 -60.5 165 -172t58 -260.5q0 -123 -38 -254t-109 -231q-86 -123 -214.5 -188t-287.5 -65q-142 0 -249 60.5t-165 172t-58 260.5q0 123 38 254t109 231q86 123 214.5 188t287.5 65q142 0 249 -60.5zM462 849q-52 -73 -80.5 -178.5t-28.5 -203.5
q0 -127 57 -194.5t170 -67.5q159 0 255 133q52 73 80.5 178.5t28.5 203.5q0 127 -57 194.5t-170 67.5q-159 0 -255 -133zM678 1577q37 -38 37 -93q0 -47 -23.5 -85.5t-63 -61t-83.5 -22.5q-57 0 -94.5 38t-37.5 93q0 47 24 85.5t63.5 61t83.5 22.5q57 0 94 -38zM1138 1577
q37 -38 37 -93q0 -47 -23.5 -85.5t-63 -61t-83.5 -22.5q-57 0 -94.5 38t-37.5 93q0 47 24 85.5t63.5 61t83.5 22.5q57 0 94 -38z" />
    <glyph glyph-name="multiply" unicode="&#xd7;" 
d="M1085 829q0 -21 -25 -41l-258 -219l183 -219q17 -20 17 -37q0 -16 -14.5 -35.5t-48.5 -48.5q-56 -48 -86 -48q-21 0 -41 25l-182 218l-259 -220q-20 -17 -37 -17q-16 0 -35.5 14.5t-47.5 47.5q-48 58 -48 87q0 20 24 41l259 220l-182 218q-17 20 -17 37q0 16 14.5 35.5
t47.5 47.5q58 48 87 48q20 0 41 -24l181 -217l258 219q20 17 37 17t36 -14.5t48 -48.5q48 -56 48 -86z" />
    <glyph glyph-name="Oslash" unicode="&#xd8;" 
d="M1239.5 1197.5q10.5 -14.5 10.5 -28.5q0 -18 -22 -43l-99 -113q80 -122 80 -297q0 -123 -38 -254t-109 -231q-86 -123 -214.5 -188t-287.5 -65q-157 0 -271 74l-84 -96q-13 -15 -24.5 -22t-24.5 -7q-23 0 -63 31q-44 34 -44 61q0 19 22 44l97 111q-80 122 -80 297
q0 123 38 254t109 231q86 123 214.5 188t287.5 65q157 0 271 -74l86 98q13 15 24.5 22t24.5 7q23 0 63 -31q23 -19 33.5 -33.5zM462 849q-52 -73 -80.5 -178.5t-28.5 -203.5q0 -40 6 -75l487 558q-52 32 -129 32q-159 0 -255 -133zM580 205q159 0 255 133q52 73 80.5 178.5
t28.5 203.5q0 41 -6 75l-487 -558q52 -32 129 -32z" />
    <glyph glyph-name="Ugrave" unicode="&#xd9;" 
d="M1293 1176q12 -11 12 -40q0 -20 -6 -52q-7 -42 -17.5 -64t-25 -30t-38.5 -8h-47l-103 -579q-37 -209 -167 -317t-341 -108q-123 0 -214 43.5t-140 124.5t-49 192q0 46 9 95l97 549h-47q-27 0 -39 10.5t-12 39.5q0 21 6 52q7 42 17.5 64t25 30.5t38.5 8.5h374q27 0 39 -11
t12 -40q0 -20 -6 -52q-7 -42 -17.5 -64t-25 -30t-38.5 -8h-77l-97 -549q-6 -34 -6 -63q0 -83 45 -124t125 -41q94 0 159 56.5t85 171.5l97 549h-77q-27 0 -39 10.5t-12 39.5q0 21 6 52q7 42 17.5 64t25 30.5t38.5 8.5h374q27 0 39 -11zM1001.5 1394q7.5 -13 7.5 -27
q0 -12 -5 -25q-7 -19 -20.5 -30t-31.5 -11q-10 0 -16 2l-480 125q-29 8 -29 46q0 36 26 97q44 99 93 99q13 0 27 -8l408 -247q13 -8 20.5 -21z" />
    <glyph glyph-name="Uacute" unicode="&#xda;" 
d="M1293 1176q12 -11 12 -40q0 -20 -6 -52q-7 -42 -17.5 -64t-25 -30t-38.5 -8h-47l-103 -579q-37 -209 -167 -317t-341 -108q-123 0 -214 43.5t-140 124.5t-49 192q0 46 9 95l97 549h-47q-27 0 -39 10.5t-12 39.5q0 21 6 52q7 42 17.5 64t25 30.5t38.5 8.5h374q27 0 39 -11
t12 -40q0 -20 -6 -52q-7 -42 -17.5 -64t-25 -30t-38.5 -8h-77l-97 -549q-6 -34 -6 -63q0 -83 45 -124t125 -41q94 0 159 56.5t85 171.5l97 549h-77q-27 0 -39 10.5t-12 39.5q0 21 6 52q7 42 17.5 64t25 30.5t38.5 8.5h374q27 0 39 -11zM986 1670q49 0 93 -99q26 -61 26 -97
q0 -38 -29 -46l-480 -125q-6 -2 -16 -2q-18 0 -31.5 11t-20.5 30q-5 13 -5 25q0 14 7.5 27t20.5 21l408 247q14 8 27 8z" />
    <glyph glyph-name="Ucircumflex" unicode="&#xdb;" 
d="M1293 1176q12 -11 12 -40q0 -20 -6 -52q-7 -42 -17.5 -64t-25 -30t-38.5 -8h-47l-103 -579q-37 -209 -167 -317t-341 -108q-123 0 -214 43.5t-140 124.5t-49 192q0 46 9 95l97 549h-47q-27 0 -39 10.5t-12 39.5q0 21 6 52q7 42 17.5 64t25 30.5t38.5 8.5h374q27 0 39 -11
t12 -40q0 -20 -6 -52q-7 -42 -17.5 -64t-25 -30t-38.5 -8h-77l-97 -549q-6 -34 -6 -63q0 -83 45 -124t125 -41q94 0 159 56.5t85 171.5l97 549h-77q-27 0 -39 10.5t-12 39.5q0 21 6 52q7 42 17.5 64t25 30.5t38.5 8.5h374q27 0 39 -11zM853 1658l251 -261q15 -15 15 -35
q0 -16 -13 -37q-20 -32 -48 -32q-12 0 -24 6l-255 134l-303 -134q-12 -5 -20 -5q-25 0 -44 35q-11 19 -11 34q0 19 19 34l323 261q24 18 58 18q37 0 52 -18z" />
    <glyph glyph-name="Udieresis" unicode="&#xdc;" 
d="M1293 1176q12 -11 12 -40q0 -20 -6 -52q-7 -42 -17.5 -64t-25 -30t-38.5 -8h-47l-103 -579q-37 -209 -167 -317t-341 -108q-123 0 -214 43.5t-140 124.5t-49 192q0 46 9 95l97 549h-47q-27 0 -39 10.5t-12 39.5q0 21 6 52q7 42 17.5 64t25 30.5t38.5 8.5h374q27 0 39 -11
t12 -40q0 -20 -6 -52q-7 -42 -17.5 -64t-25 -30t-38.5 -8h-77l-97 -549q-6 -34 -6 -63q0 -83 45 -124t125 -41q94 0 159 56.5t85 171.5l97 549h-77q-27 0 -39 10.5t-12 39.5q0 21 6 52q7 42 17.5 64t25 30.5t38.5 8.5h374q27 0 39 -11zM668 1577q37 -38 37 -93
q0 -47 -23.5 -85.5t-63 -61t-83.5 -22.5q-57 0 -94.5 38t-37.5 93q0 47 24 85.5t63.5 61t83.5 22.5q57 0 94 -38zM1128 1577q37 -38 37 -93q0 -47 -23.5 -85.5t-63 -61t-83.5 -22.5q-57 0 -94.5 38t-37.5 93q0 47 24 85.5t63.5 61t83.5 22.5q57 0 94 -38z" />
    <glyph glyph-name="Yacute" unicode="&#xdd;" 
d="M1303 1176q12 -11 12 -40q0 -20 -6 -52q-7 -42 -17.5 -64t-25 -30t-38.5 -8h-45l-433 -522l-45 -255h206q26 0 38 -10.5t12 -39.5q0 -20 -6 -53q-7 -42 -17 -64t-24.5 -30t-38.5 -8h-642q-27 0 -39 11t-12 40q0 25 5 51q11 61 29 82t53 21h186l46 262l-245 515h-50
q-27 0 -39 10.5t-12 39.5q0 21 6 52q7 42 17.5 64t25 30.5t38.5 8.5h384q27 0 39 -11t12 -40q0 -20 -6 -52q-7 -42 -17.5 -64t-25 -30t-38.5 -8h-67l134 -292l239 292h-52q-27 0 -39 10.5t-12 39.5q0 21 6 52q7 42 17.5 64t25 30.5t38.5 8.5h384q27 0 39 -11zM1016 1670
q49 0 93 -99q26 -61 26 -97q0 -38 -29 -46l-480 -125q-6 -2 -16 -2q-18 0 -31.5 11t-20.5 30q-5 13 -5 25q0 14 7.5 27t20.5 21l408 247q14 8 27 8z" />
    <glyph glyph-name="Thorn" unicode="&#xde;" 
d="M945 1176q12 -11 12 -40q0 -20 -6 -52q-7 -42 -17.5 -64t-25 -30t-38.5 -8h-187l-17 -96h139q158 0 238 -67t80 -180q0 -63 -21 -125.5t-65 -106.5q-104 -106 -334 -106h-140l-17 -96h187q26 0 38 -10.5t12 -39.5q0 -20 -6 -53q-7 -42 -17 -64t-24.5 -30t-38.5 -8h-584
q-27 0 -39 11t-12 40q0 25 5 51q11 61 29 82t53 21h147l137 777h-147q-27 0 -39 10.5t-12 39.5q0 21 6 52q7 42 17.5 64t25 30.5t38.5 8.5h584q27 0 39 -11zM597 496h109q94 0 130 39q14 15 21.5 37t7.5 45q0 39 -30.5 56.5t-94.5 17.5h-109z" />
    <glyph glyph-name="germandbls" unicode="&#xdf;" 
d="M950.5 1276.5q82.5 -40.5 126 -112t43.5 -162.5q0 -233 -208 -334q80 -32 122 -96.5t42 -153.5q0 -110 -50 -210t-162 -165t-289 -65q-34 0 -48.5 18.5t-14.5 64.5q0 19 1 30q4 62 20.5 87t51.5 27q114 4 171 65t57 152q0 61 -40 94t-115 33q-25 0 -37 13t-12 43
q0 23 6 56q11 62 29.5 86.5t53.5 26.5q91 7 132 64.5t41 130.5q0 54 -33 87.5t-101 33.5q-81 0 -134 -55.5t-71 -160.5l-143 -811q-6 -34 -23 -48.5t-51 -14.5h-124q-28 0 -41 10t-13 32q0 5 2 21l143 814q36 205 157.5 322.5t315.5 117.5q113 0 195.5 -40.5z" />
    <glyph glyph-name="agrave" unicode="&#xe0;" 
d="M1152.5 214q11.5 -11 11.5 -42q0 -23 -6 -59q-11 -67 -29 -90t-54 -23h-24q-84 0 -142 32.5t-81 100.5q-149 -155 -364 -155q-108 0 -189 51t-125 142t-44 209q0 134 58 264.5t173 216t277 85.5q91 0 164.5 -44.5t110.5 -119.5l13 79q5 34 22.5 48.5t51.5 14.5h94
q28 0 41 -10t13 -32q0 -5 -2 -21l-90 -511q-4 -21 -4 -42q0 -83 82 -83h5q26 0 37.5 -11zM684 253q64 47 97.5 120.5t33.5 148.5q0 92 -53 144t-137 52q-85 0 -142 -51t-84 -126.5t-27 -149.5q0 -85 42.5 -135t120.5 -50q85 0 149 47zM991.5 1124q7.5 -13 7.5 -27
q0 -12 -5 -25q-7 -19 -20.5 -30t-31.5 -11q-10 0 -16 2l-480 125q-29 8 -29 46q0 36 26 97q44 99 93 99q13 0 27 -8l408 -247q13 -8 20.5 -21z" />
    <glyph glyph-name="aacute" unicode="&#xe1;" 
d="M1152.5 214q11.5 -11 11.5 -42q0 -23 -6 -59q-11 -67 -29 -90t-54 -23h-24q-84 0 -142 32.5t-81 100.5q-149 -155 -364 -155q-108 0 -189 51t-125 142t-44 209q0 134 58 264.5t173 216t277 85.5q91 0 164.5 -44.5t110.5 -119.5l13 79q5 34 22.5 48.5t51.5 14.5h94
q28 0 41 -10t13 -32q0 -5 -2 -21l-90 -511q-4 -21 -4 -42q0 -83 82 -83h5q26 0 37.5 -11zM684 253q64 47 97.5 120.5t33.5 148.5q0 92 -53 144t-137 52q-85 0 -142 -51t-84 -126.5t-27 -149.5q0 -85 42.5 -135t120.5 -50q85 0 149 47zM906 1400q49 0 93 -99q26 -61 26 -97
q0 -38 -29 -46l-480 -125q-6 -2 -16 -2q-18 0 -31.5 11t-20.5 30q-5 13 -5 25q0 14 7.5 27t20.5 21l408 247q14 8 27 8z" />
    <glyph glyph-name="acircumflex" unicode="&#xe2;" 
d="M1152.5 214q11.5 -11 11.5 -42q0 -23 -6 -59q-11 -67 -29 -90t-54 -23h-24q-84 0 -142 32.5t-81 100.5q-149 -155 -364 -155q-108 0 -189 51t-125 142t-44 209q0 134 58 264.5t173 216t277 85.5q91 0 164.5 -44.5t110.5 -119.5l13 79q5 34 22.5 48.5t51.5 14.5h94
q28 0 41 -10t13 -32q0 -5 -2 -21l-90 -511q-4 -21 -4 -42q0 -83 82 -83h5q26 0 37.5 -11zM684 253q64 47 97.5 120.5t33.5 148.5q0 92 -53 144t-137 52q-85 0 -142 -51t-84 -126.5t-27 -149.5q0 -85 42.5 -135t120.5 -50q85 0 149 47zM803 1388l251 -261q15 -15 15 -35
q0 -16 -13 -37q-20 -32 -48 -32q-12 0 -24 6l-255 134l-303 -134q-12 -5 -20 -5q-25 0 -44 35q-11 19 -11 34q0 19 19 34l323 261q24 18 58 18q37 0 52 -18z" />
    <glyph glyph-name="atilde" unicode="&#xe3;" 
d="M1152.5 214q11.5 -11 11.5 -42q0 -23 -6 -59q-11 -67 -29 -90t-54 -23h-24q-84 0 -142 32.5t-81 100.5q-149 -155 -364 -155q-108 0 -189 51t-125 142t-44 209q0 134 58 264.5t173 216t277 85.5q91 0 164.5 -44.5t110.5 -119.5l13 79q5 34 22.5 48.5t51.5 14.5h94
q28 0 41 -10t13 -32q0 -5 -2 -21l-90 -511q-4 -21 -4 -42q0 -83 82 -83h5q26 0 37.5 -11zM684 253q64 47 97.5 120.5t33.5 148.5q0 92 -53 144t-137 52q-85 0 -142 -51t-84 -126.5t-27 -149.5q0 -85 42.5 -135t120.5 -50q85 0 149 47zM651.5 1314.5q35.5 -9.5 84.5 -28.5
q48 -18 78.5 -27t62.5 -9q63 0 122 31q14 7 23 7q31 0 55 -44q15 -28 15 -51q0 -26 -19 -42q-111 -93 -203 -93q-38 0 -73.5 10t-84.5 29q-45 17 -76.5 26t-63.5 9q-65 0 -124 -31q-11 -6 -22 -6q-30 0 -54 44q-16 29 -16 52q0 25 18 40q106 93 205 93q37 0 72.5 -9.5z" />
    <glyph glyph-name="adieresis" unicode="&#xe4;" 
d="M1152.5 214q11.5 -11 11.5 -42q0 -23 -6 -59q-11 -67 -29 -90t-54 -23h-24q-84 0 -142 32.5t-81 100.5q-149 -155 -364 -155q-108 0 -189 51t-125 142t-44 209q0 134 58 264.5t173 216t277 85.5q91 0 164.5 -44.5t110.5 -119.5l13 79q5 34 22.5 48.5t51.5 14.5h94
q28 0 41 -10t13 -32q0 -5 -2 -21l-90 -511q-4 -21 -4 -42q0 -83 82 -83h5q26 0 37.5 -11zM684 253q64 47 97.5 120.5t33.5 148.5q0 92 -53 144t-137 52q-85 0 -142 -51t-84 -126.5t-27 -149.5q0 -85 42.5 -135t120.5 -50q85 0 149 47zM618 1307q37 -38 37 -93
q0 -47 -23.5 -85.5t-63 -61t-83.5 -22.5q-57 0 -94.5 38t-37.5 93q0 47 24 85.5t63.5 61t83.5 22.5q57 0 94 -38zM1078 1307q37 -38 37 -93q0 -47 -23.5 -85.5t-63 -61t-83.5 -22.5q-57 0 -94.5 38t-37.5 93q0 47 24 85.5t63.5 61t83.5 22.5q57 0 94 -38z" />
    <glyph glyph-name="aring" unicode="&#xe5;" 
d="M1152.5 214q11.5 -11 11.5 -42q0 -23 -6 -59q-11 -67 -29 -90t-54 -23h-24q-84 0 -142 32.5t-81 100.5q-149 -155 -364 -155q-108 0 -189 51t-125 142t-44 209q0 134 58 264.5t173 216t277 85.5q91 0 164.5 -44.5t110.5 -119.5l13 79q5 34 22.5 48.5t51.5 14.5h94
q28 0 41 -10t13 -32q0 -5 -2 -21l-90 -511q-4 -21 -4 -42q0 -83 82 -83h5q26 0 37.5 -11zM684 253q64 47 97.5 120.5t33.5 148.5q0 92 -53 144t-137 52q-85 0 -142 -51t-84 -126.5t-27 -149.5q0 -85 42.5 -135t120.5 -50q85 0 149 47zM907 1536q52 -31 82 -83.5t30 -114.5
q0 -73 -38.5 -141t-107.5 -111t-154 -43q-64 0 -116 30.5t-82 83t-30 114.5q0 76 39.5 144t108.5 110t152 42q64 0 116 -31zM711.5 1390.5q-28.5 -17.5 -45 -45.5t-16.5 -58q0 -37 24.5 -61t62.5 -24q32 0 60 17t45 45t17 59q0 36 -24 60.5t-62 24.5q-33 0 -61.5 -17.5z" />
    <glyph glyph-name="ae" unicode="&#xe6;" 
d="M1149 858.5q68 -87.5 68 -244.5q0 -76 -18 -182q-6 -34 -23 -48t-51 -14h-406q-2 -18 -2 -38q0 -62 28 -94.5t79 -32.5q52 0 100.5 12t115.5 38q19 7 31 7q20 0 34 -19t27 -64q11 -41 11 -63q0 -26 -12 -41t-38 -26q-84 -34 -157 -52.5t-147 -18.5q-157 0 -219 124
q-57 -62 -134.5 -93t-164.5 -31q-79 0 -139 29.5t-93 84.5t-33 129q0 114 52 196.5t150 126.5t234 44q48 0 99 -6l1 6q3 18 3 32q0 99 -124 99q-43 0 -88 -13.5t-97 -38.5q-14 -7 -28 -7q-20 0 -37.5 19t-33.5 61q-13 32 -13 58q0 43 38 64q76 41 155 62.5t152 21.5
q160 0 225 -94q49 45 110.5 69.5t129.5 24.5q147 0 215 -87.5zM815.5 681.5q-38.5 -37.5 -62.5 -116.5h244q3 21 3 40q0 55 -21.5 84.5t-64.5 29.5q-60 0 -98.5 -37.5zM438 393q-101 0 -150.5 -31.5t-49.5 -101.5q0 -34 21 -52.5t62 -18.5q70 0 119 47.5t62 121.5l5 32
q-37 3 -69 3z" />
    <glyph glyph-name="ccedilla" unicode="&#xe7;" 
d="M1128 935q22 -11 22 -36q0 -4 -2 -16l-56 -321q-6 -34 -39.5 -48.5t-104.5 -14.5q-60 0 -84 11t-24 36q0 4 2 16q2 9 2 28q0 56 -39.5 92.5t-114.5 36.5q-93 0 -158.5 -47.5t-98.5 -120.5t-33 -149q0 -92 53 -144.5t147 -52.5q77 0 161.5 25t168.5 69q17 9 31 9
q43 0 74 -83q15 -42 15 -71q0 -25 -11 -42t-34 -29q-86 -42 -184 -69t-191 -34l-13 -73q96 3 145.5 -40t49.5 -117q0 -36 -12 -74t-36 -65q-71 -83 -257 -83q-149 0 -248 41q-18 7 -18 32q0 22 14 53q12 27 27 43.5t31 16.5q7 0 11 -2q42 -17 76.5 -25.5t80.5 -8.5
q52 0 74 18t22 46q0 42 -65 42q-21 0 -53 -5q-13 -3 -23 4.5t-10 24.5q0 8 1 12l29 170q-100 22 -172.5 78t-111 139t-38.5 182q0 137 64.5 265.5t188.5 210t293 81.5q82 0 143.5 -31.5t84.5 -90.5l10 59q6 34 37.5 48.5t95.5 14.5q55 0 77 -11z" />
    <glyph glyph-name="egrave" unicode="&#xe8;" 
d="M974 264q23 0 36 -19.5t23 -68.5q6 -31 6 -54q0 -31 -13 -47.5t-42 -25.5q-108 -34 -221.5 -52.5t-218.5 -18.5q-127 0 -219 51.5t-140 142.5t-48 207q0 156 69 285t200 205.5t308 76.5q116 0 204 -39.5t136.5 -110.5t48.5 -162q0 -114 -62.5 -180.5t-188.5 -79.5
l-453 -45q15 -61 62 -92.5t123 -31.5q174 0 365 55q12 4 25 4zM412 516l349 35q42 4 60 24t18 49q0 40 -37.5 67.5t-113.5 27.5q-216 0 -276 -203zM991.5 1124q7.5 -13 7.5 -27q0 -12 -5 -25q-7 -19 -20.5 -30t-31.5 -11q-10 0 -16 2l-480 125q-29 8 -29 46q0 36 26 97
q44 99 93 99q13 0 27 -8l408 -247q13 -8 20.5 -21z" />
    <glyph glyph-name="eacute" unicode="&#xe9;" 
d="M974 264q23 0 36 -19.5t23 -68.5q6 -31 6 -54q0 -31 -13 -47.5t-42 -25.5q-108 -34 -221.5 -52.5t-218.5 -18.5q-127 0 -219 51.5t-140 142.5t-48 207q0 156 69 285t200 205.5t308 76.5q116 0 204 -39.5t136.5 -110.5t48.5 -162q0 -114 -62.5 -180.5t-188.5 -79.5
l-453 -45q15 -61 62 -92.5t123 -31.5q174 0 365 55q12 4 25 4zM412 516l349 35q42 4 60 24t18 49q0 40 -37.5 67.5t-113.5 27.5q-216 0 -276 -203zM916 1400q49 0 93 -99q26 -61 26 -97q0 -38 -29 -46l-480 -125q-6 -2 -16 -2q-18 0 -31.5 11t-20.5 30q-5 13 -5 25
q0 14 7.5 27t20.5 21l408 247q14 8 27 8z" />
    <glyph glyph-name="ecircumflex" unicode="&#xea;" 
d="M974 264q23 0 36 -19.5t23 -68.5q6 -31 6 -54q0 -31 -13 -47.5t-42 -25.5q-108 -34 -221.5 -52.5t-218.5 -18.5q-127 0 -219 51.5t-140 142.5t-48 207q0 156 69 285t200 205.5t308 76.5q116 0 204 -39.5t136.5 -110.5t48.5 -162q0 -114 -62.5 -180.5t-188.5 -79.5
l-453 -45q15 -61 62 -92.5t123 -31.5q174 0 365 55q12 4 25 4zM412 516l349 35q42 4 60 24t18 49q0 40 -37.5 67.5t-113.5 27.5q-216 0 -276 -203zM813 1388l251 -261q15 -15 15 -35q0 -16 -13 -37q-20 -32 -48 -32q-12 0 -24 6l-255 134l-303 -134q-12 -5 -20 -5
q-25 0 -44 35q-11 19 -11 34q0 19 19 34l323 261q24 18 58 18q37 0 52 -18z" />
    <glyph glyph-name="edieresis" unicode="&#xeb;" 
d="M974 264q23 0 36 -19.5t23 -68.5q6 -31 6 -54q0 -31 -13 -47.5t-42 -25.5q-108 -34 -221.5 -52.5t-218.5 -18.5q-127 0 -219 51.5t-140 142.5t-48 207q0 156 69 285t200 205.5t308 76.5q116 0 204 -39.5t136.5 -110.5t48.5 -162q0 -114 -62.5 -180.5t-188.5 -79.5
l-453 -45q15 -61 62 -92.5t123 -31.5q174 0 365 55q12 4 25 4zM412 516l349 35q42 4 60 24t18 49q0 40 -37.5 67.5t-113.5 27.5q-216 0 -276 -203zM618 1307q37 -38 37 -93q0 -47 -23.5 -85.5t-63 -61t-83.5 -22.5q-57 0 -94.5 38t-37.5 93q0 47 24 85.5t63.5 61t83.5 22.5
q57 0 94 -38zM1078 1307q37 -38 37 -93q0 -47 -23.5 -85.5t-63 -61t-83.5 -22.5q-57 0 -94.5 38t-37.5 93q0 47 24 85.5t63.5 61t83.5 22.5q57 0 94 -38z" />
    <glyph glyph-name="igrave" unicode="&#xec;" 
d="M763 914q13 -10 13 -32q0 -5 -2 -21l-88 -500q-5 -32 -5 -53q0 -53 24.5 -78t72.5 -25q49 0 94.5 14t108.5 48q20 11 36 11q22 0 39 -18t34 -56q21 -47 21 -70q0 -36 -41 -60q-94 -53 -170 -74.5t-164 -21.5q-146 0 -226.5 77t-80.5 217q0 45 9 96l61 351h-193
q-27 0 -39 10.5t-12 39.5q0 21 6 52q7 42 17.5 64t25 30.5t38.5 8.5h380q28 0 41 -10zM841.5 1124q7.5 -13 7.5 -27q0 -12 -5 -25q-7 -19 -20.5 -30t-31.5 -11q-10 0 -16 2l-480 125q-29 8 -29 46q0 36 26 97q44 99 93 99q13 0 27 -8l408 -247q13 -8 20.5 -21z" />
    <glyph glyph-name="iacute" unicode="&#xed;" 
d="M763 914q13 -10 13 -32q0 -5 -2 -21l-88 -500q-5 -32 -5 -53q0 -53 24.5 -78t72.5 -25q49 0 94.5 14t108.5 48q20 11 36 11q22 0 39 -18t34 -56q21 -47 21 -70q0 -36 -41 -60q-94 -53 -170 -74.5t-164 -21.5q-146 0 -226.5 77t-80.5 217q0 45 9 96l61 351h-193
q-27 0 -39 10.5t-12 39.5q0 21 6 52q7 42 17.5 64t25 30.5t38.5 8.5h380q28 0 41 -10zM846 1400q49 0 93 -99q26 -61 26 -97q0 -38 -29 -46l-480 -125q-6 -2 -16 -2q-18 0 -31.5 11t-20.5 30q-5 13 -5 25q0 14 7.5 27t20.5 21l408 247q14 8 27 8z" />
    <glyph glyph-name="icircumflex" unicode="&#xee;" 
d="M763 914q13 -10 13 -32q0 -5 -2 -21l-88 -500q-5 -32 -5 -53q0 -53 24.5 -78t72.5 -25q49 0 94.5 14t108.5 48q20 11 36 11q22 0 39 -18t34 -56q21 -47 21 -70q0 -36 -41 -60q-94 -53 -170 -74.5t-164 -21.5q-146 0 -226.5 77t-80.5 217q0 45 9 96l61 351h-193
q-27 0 -39 10.5t-12 39.5q0 21 6 52q7 42 17.5 64t25 30.5t38.5 8.5h380q28 0 41 -10zM753 1388l251 -261q15 -15 15 -35q0 -16 -13 -37q-20 -32 -48 -32q-12 0 -24 6l-255 134l-303 -134q-12 -5 -20 -5q-25 0 -44 35q-11 19 -11 34q0 19 19 34l323 261q24 18 58 18
q37 0 52 -18z" />
    <glyph glyph-name="idieresis" unicode="&#xef;" 
d="M763 914q13 -10 13 -32q0 -5 -2 -21l-88 -500q-5 -32 -5 -53q0 -53 24.5 -78t72.5 -25q49 0 94.5 14t108.5 48q20 11 36 11q22 0 39 -18t34 -56q21 -47 21 -70q0 -36 -41 -60q-94 -53 -170 -74.5t-164 -21.5q-146 0 -226.5 77t-80.5 217q0 45 9 96l61 351h-193
q-27 0 -39 10.5t-12 39.5q0 21 6 52q7 42 17.5 64t25 30.5t38.5 8.5h380q28 0 41 -10zM558 1307q37 -38 37 -93q0 -47 -23.5 -85.5t-63 -61t-83.5 -22.5q-57 0 -94.5 38t-37.5 93q0 47 24 85.5t63.5 61t83.5 22.5q57 0 94 -38zM1018 1307q37 -38 37 -93q0 -47 -23.5 -85.5
t-63 -61t-83.5 -22.5q-57 0 -94.5 38t-37.5 93q0 47 24 85.5t63.5 61t83.5 22.5q57 0 94 -38z" />
    <glyph glyph-name="eth" unicode="&#xf0;" 
d="M836 1231l166 81q22 10 33 10q15 0 27.5 -14.5t28.5 -48.5q18 -37 18 -59q0 -16 -9 -27t-29 -20l-107 -52q82 -104 123.5 -227.5t41.5 -260.5q0 -78 -16 -171q-26 -148 -102 -252.5t-193.5 -158t-267.5 -53.5q-130 0 -227 49t-149 135.5t-52 196.5q0 117 57 233.5
t177.5 195t299.5 78.5q114 0 196 -55q-42 93 -122 176l-163 -79q-20 -10 -35 -10q-17 0 -31 14.5t-29 47.5q-16 35 -16 56q0 17 10 29t32 22l84 41q-16 11 -50 31l-18 10q-24 14 -24 37q0 34 50 91q34 39 58 55.5t45 16.5q17 0 33 -9q93 -52 160 -109zM508 599.5
q-60 -39.5 -89 -100t-29 -124.5q0 -80 50.5 -125t139.5 -45q85 0 145 37.5t90.5 98.5t30.5 129q0 80 -50.5 124.5t-139.5 44.5q-88 0 -148 -39.5z" />
    <glyph glyph-name="ntilde" unicode="&#xf1;" 
d="M970 912q58 -34 89.5 -95.5t31.5 -141.5q0 -31 -7 -75l-69 -395h77q26 0 38 -10.5t12 -39.5q0 -20 -6 -53q-7 -42 -17 -64t-24.5 -30t-38.5 -8h-264q-28 0 -41 10t-13 32q0 5 2 21l87 498q6 33 6 60q0 48 -22.5 73t-72.5 25q-58 0 -120 -55.5t-109.5 -144t-63.5 -181.5
l-47 -275q-6 -34 -23 -48.5t-51 -14.5h-124q-28 0 -41 10t-13 32q0 5 2 21l115 656h-97q-27 0 -39 10.5t-12 39.5q0 21 6 52q7 42 17.5 64t25 30.5t38.5 8.5h244q28 0 41 -10t13 -32q0 -5 -2 -21l-25 -145q86 119 175 174.5t185 55.5q79 0 137 -34zM661.5 1314.5
q35.5 -9.5 84.5 -28.5q48 -18 78.5 -27t62.5 -9q63 0 122 31q14 7 23 7q31 0 55 -44q15 -28 15 -51q0 -26 -19 -42q-111 -93 -203 -93q-38 0 -73.5 10t-84.5 29q-45 17 -76.5 26t-63.5 9q-65 0 -124 -31q-11 -6 -22 -6q-30 0 -54 44q-16 29 -16 52q0 25 18 40q106 93 205 93
q37 0 72.5 -9.5z" />
    <glyph glyph-name="ograve" unicode="&#xf2;" 
d="M932 893q99 -53 151.5 -146.5t52.5 -210.5q0 -134 -64 -262.5t-196.5 -212t-325.5 -83.5q-134 0 -233 53t-151.5 146t-52.5 211q0 138 66 266t198.5 210t322.5 82q133 0 232 -53zM516 674.5q-66 -44.5 -101 -117.5t-35 -156q0 -91 53.5 -143.5t146.5 -52.5
q88 0 153.5 44.5t100.5 117t35 155.5q0 91 -53 144t-146 53q-88 0 -154 -44.5zM991.5 1124q7.5 -13 7.5 -27q0 -12 -5 -25q-7 -19 -20.5 -30t-31.5 -11q-10 0 -16 2l-480 125q-29 8 -29 46q0 36 26 97q44 99 93 99q13 0 27 -8l408 -247q13 -8 20.5 -21z" />
    <glyph glyph-name="oacute" unicode="&#xf3;" 
d="M932 893q99 -53 151.5 -146.5t52.5 -210.5q0 -134 -64 -262.5t-196.5 -212t-325.5 -83.5q-134 0 -233 53t-151.5 146t-52.5 211q0 138 66 266t198.5 210t322.5 82q133 0 232 -53zM516 674.5q-66 -44.5 -101 -117.5t-35 -156q0 -91 53.5 -143.5t146.5 -52.5
q88 0 153.5 44.5t100.5 117t35 155.5q0 91 -53 144t-146 53q-88 0 -154 -44.5zM936 1400q49 0 93 -99q26 -61 26 -97q0 -38 -29 -46l-480 -125q-6 -2 -16 -2q-18 0 -31.5 11t-20.5 30q-5 13 -5 25q0 14 7.5 27t20.5 21l408 247q14 8 27 8z" />
    <glyph glyph-name="ocircumflex" unicode="&#xf4;" 
d="M932 893q99 -53 151.5 -146.5t52.5 -210.5q0 -134 -64 -262.5t-196.5 -212t-325.5 -83.5q-134 0 -233 53t-151.5 146t-52.5 211q0 138 66 266t198.5 210t322.5 82q133 0 232 -53zM516 674.5q-66 -44.5 -101 -117.5t-35 -156q0 -91 53.5 -143.5t146.5 -52.5
q88 0 153.5 44.5t100.5 117t35 155.5q0 91 -53 144t-146 53q-88 0 -154 -44.5zM813 1388l251 -261q15 -15 15 -35q0 -16 -13 -37q-20 -32 -48 -32q-12 0 -24 6l-255 134l-303 -134q-12 -5 -20 -5q-25 0 -44 35q-11 19 -11 34q0 19 19 34l323 261q24 18 58 18q37 0 52 -18z
" />
    <glyph glyph-name="otilde" unicode="&#xf5;" 
d="M932 893q99 -53 151.5 -146.5t52.5 -210.5q0 -134 -64 -262.5t-196.5 -212t-325.5 -83.5q-134 0 -233 53t-151.5 146t-52.5 211q0 138 66 266t198.5 210t322.5 82q133 0 232 -53zM516 674.5q-66 -44.5 -101 -117.5t-35 -156q0 -91 53.5 -143.5t146.5 -52.5
q88 0 153.5 44.5t100.5 117t35 155.5q0 91 -53 144t-146 53q-88 0 -154 -44.5zM651.5 1314.5q35.5 -9.5 84.5 -28.5q48 -18 78.5 -27t62.5 -9q63 0 122 31q14 7 23 7q31 0 55 -44q15 -28 15 -51q0 -26 -19 -42q-111 -93 -203 -93q-38 0 -73.5 10t-84.5 29q-45 17 -76.5 26
t-63.5 9q-65 0 -124 -31q-11 -6 -22 -6q-30 0 -54 44q-16 29 -16 52q0 25 18 40q106 93 205 93q37 0 72.5 -9.5z" />
    <glyph glyph-name="odieresis" unicode="&#xf6;" 
d="M932 893q99 -53 151.5 -146.5t52.5 -210.5q0 -134 -64 -262.5t-196.5 -212t-325.5 -83.5q-134 0 -233 53t-151.5 146t-52.5 211q0 138 66 266t198.5 210t322.5 82q133 0 232 -53zM516 674.5q-66 -44.5 -101 -117.5t-35 -156q0 -91 53.5 -143.5t146.5 -52.5
q88 0 153.5 44.5t100.5 117t35 155.5q0 91 -53 144t-146 53q-88 0 -154 -44.5zM618 1307q37 -38 37 -93q0 -47 -23.5 -85.5t-63 -61t-83.5 -22.5q-57 0 -94.5 38t-37.5 93q0 47 24 85.5t63.5 61t83.5 22.5q57 0 94 -38zM1078 1307q37 -38 37 -93q0 -47 -23.5 -85.5t-63 -61
t-83.5 -22.5q-57 0 -94.5 38t-37.5 93q0 47 24 85.5t63.5 61t83.5 22.5q57 0 94 -38z" />
    <glyph glyph-name="divide" unicode="&#xf7;" 
d="M814.5 1083q27.5 -12 27.5 -39q0 -8 -1 -12l-25 -144q-6 -34 -38.5 -48.5t-98.5 -14.5q-60 0 -87 12t-27 39q0 8 1 12l25 144q6 34 38 48.5t98 14.5q60 0 87.5 -12zM1085 684q12 -11 12 -41q0 -26 -7 -61q-8 -47 -18.5 -71t-25.5 -32.5t-39 -8.5h-762q-26 0 -38 10.5
t-12 40.5q0 26 7 61q8 47 19 71t25.5 33t38.5 9h762q26 0 38 -11zM701.5 328q27.5 -12 27.5 -39q0 -8 -1 -12l-26 -144q-5 -34 -37.5 -48.5t-98.5 -14.5t-92.5 14.5t-21.5 48.5l26 144q6 34 38 48.5t98 14.5q60 0 87.5 -12z" />
    <glyph glyph-name="oslash" unicode="&#xf8;" 
d="M1208 881q0 -22 -28 -47l-98 -85q54 -96 54 -213q0 -134 -64 -262.5t-196.5 -212t-325.5 -83.5q-156 0 -266 72l-102 -89q-26 -23 -46 -23q-26 0 -62 42q-32 38 -32 63q0 22 28 47l97 85q-54 94 -54 213q0 138 66 266t198.5 210t322.5 82q155 0 265 -73l103 90
q26 23 46 23q26 0 62 -42q32 -38 32 -63zM383 363l384 337q-43 19 -97 19q-88 0 -154 -44.5t-101 -117.5t-35 -156q0 -20 3 -38zM866 560l-383 -336q43 -19 97 -19q88 0 153.5 44.5t100.5 117t35 155.5q0 20 -3 38z" />
    <glyph glyph-name="ugrave" unicode="&#xf9;" 
d="M1102 914q13 -10 13 -32q0 -5 -2 -21l-115 -656h77q27 0 39 -10.5t12 -39.5q0 -20 -6 -52q-7 -42 -17.5 -64t-25 -30.5t-38.5 -8.5h-224q-28 0 -41 10t-13 32q0 5 2 21l25 145q-86 -119 -175 -174.5t-185 -55.5q-79 0 -137 34t-89.5 95.5t-31.5 141.5q0 39 7 75l69 395
h-77q-27 0 -39 11t-12 40q0 21 6 52q7 42 17.5 64t25 30t38.5 8h264q28 0 41 -10t13 -32q0 -5 -2 -21l-87 -498q-6 -31 -6 -58q0 -49 22.5 -74.5t72.5 -25.5q58 0 120.5 55.5t110 144.5t62.5 181l22 133h-107q-27 0 -39 11t-12 40q0 21 6 52q7 42 17.5 64t25 30t38.5 8h294
q28 0 41 -10zM951.5 1124q7.5 -13 7.5 -27q0 -12 -5 -25q-7 -19 -20.5 -30t-31.5 -11q-10 0 -16 2l-480 125q-29 8 -29 46q0 36 26 97q44 99 93 99q13 0 27 -8l408 -247q13 -8 20.5 -21z" />
    <glyph glyph-name="uacute" unicode="&#xfa;" 
d="M1102 914q13 -10 13 -32q0 -5 -2 -21l-115 -656h77q27 0 39 -10.5t12 -39.5q0 -20 -6 -52q-7 -42 -17.5 -64t-25 -30.5t-38.5 -8.5h-224q-28 0 -41 10t-13 32q0 5 2 21l25 145q-86 -119 -175 -174.5t-185 -55.5q-79 0 -137 34t-89.5 95.5t-31.5 141.5q0 39 7 75l69 395
h-77q-27 0 -39 11t-12 40q0 21 6 52q7 42 17.5 64t25 30t38.5 8h264q28 0 41 -10t13 -32q0 -5 -2 -21l-87 -498q-6 -31 -6 -58q0 -49 22.5 -74.5t72.5 -25.5q58 0 120.5 55.5t110 144.5t62.5 181l22 133h-107q-27 0 -39 11t-12 40q0 21 6 52q7 42 17.5 64t25 30t38.5 8h294
q28 0 41 -10zM946 1400q49 0 93 -99q26 -61 26 -97q0 -38 -29 -46l-480 -125q-6 -2 -16 -2q-18 0 -31.5 11t-20.5 30q-5 13 -5 25q0 14 7.5 27t20.5 21l408 247q14 8 27 8z" />
    <glyph glyph-name="ucircumflex" unicode="&#xfb;" 
d="M1102 914q13 -10 13 -32q0 -5 -2 -21l-115 -656h77q27 0 39 -10.5t12 -39.5q0 -20 -6 -52q-7 -42 -17.5 -64t-25 -30.5t-38.5 -8.5h-224q-28 0 -41 10t-13 32q0 5 2 21l25 145q-86 -119 -175 -174.5t-185 -55.5q-79 0 -137 34t-89.5 95.5t-31.5 141.5q0 39 7 75l69 395
h-77q-27 0 -39 11t-12 40q0 21 6 52q7 42 17.5 64t25 30t38.5 8h264q28 0 41 -10t13 -32q0 -5 -2 -21l-87 -498q-6 -31 -6 -58q0 -49 22.5 -74.5t72.5 -25.5q58 0 120.5 55.5t110 144.5t62.5 181l22 133h-107q-27 0 -39 11t-12 40q0 21 6 52q7 42 17.5 64t25 30t38.5 8h294
q28 0 41 -10zM793 1388l251 -261q15 -15 15 -35q0 -16 -13 -37q-20 -32 -48 -32q-12 0 -24 6l-255 134l-303 -134q-12 -5 -20 -5q-25 0 -44 35q-11 19 -11 34q0 19 19 34l323 261q24 18 58 18q37 0 52 -18z" />
    <glyph glyph-name="udieresis" unicode="&#xfc;" 
d="M1102 914q13 -10 13 -32q0 -5 -2 -21l-115 -656h77q27 0 39 -10.5t12 -39.5q0 -20 -6 -52q-7 -42 -17.5 -64t-25 -30.5t-38.5 -8.5h-224q-28 0 -41 10t-13 32q0 5 2 21l25 145q-86 -119 -175 -174.5t-185 -55.5q-79 0 -137 34t-89.5 95.5t-31.5 141.5q0 39 7 75l69 395
h-77q-27 0 -39 11t-12 40q0 21 6 52q7 42 17.5 64t25 30t38.5 8h264q28 0 41 -10t13 -32q0 -5 -2 -21l-87 -498q-6 -31 -6 -58q0 -49 22.5 -74.5t72.5 -25.5q58 0 120.5 55.5t110 144.5t62.5 181l22 133h-107q-27 0 -39 11t-12 40q0 21 6 52q7 42 17.5 64t25 30t38.5 8h294
q28 0 41 -10zM588 1307q37 -38 37 -93q0 -47 -23.5 -85.5t-63 -61t-83.5 -22.5q-57 0 -94.5 38t-37.5 93q0 47 24 85.5t63.5 61t83.5 22.5q57 0 94 -38zM1048 1307q37 -38 37 -93q0 -47 -23.5 -85.5t-63 -61t-83.5 -22.5q-57 0 -94.5 38t-37.5 93q0 47 24 85.5t63.5 61
t83.5 22.5q57 0 94 -38z" />
    <glyph glyph-name="yacute" unicode="&#xfd;" 
d="M1256 913q12 -11 12 -40q0 -20 -6 -52q-7 -42 -17.5 -64t-25 -30t-38.5 -8h-59l-520 -776q-95 -142 -171.5 -215t-161.5 -103.5t-212 -34.5q-32 -1 -48 21.5t-16 81.5q0 119 64 123q80 5 134.5 31.5t105.5 83t129 169.5l-192 619h-75q-27 0 -39 10.5t-12 39.5q0 21 6 52
q7 42 17.5 64t25 30.5t38.5 8.5h394q27 0 39 -11t12 -40q0 -20 -6 -52q-7 -42 -17.5 -64t-25 -30t-38.5 -8h-60l107 -380l241 380h-54q-27 0 -39 10.5t-12 39.5q0 21 6 52q7 42 17.5 64t25 30.5t38.5 8.5h394q27 0 39 -11zM974 1400q49 0 93 -99q26 -61 26 -97
q0 -38 -29 -46l-480 -125q-6 -2 -16 -2q-18 0 -31.5 11t-20.5 30q-5 13 -5 25q0 14 7.5 27t20.5 21l408 247q14 8 27 8z" />
    <glyph glyph-name="thorn" unicode="&#xfe;" 
d="M586 1302q13 -10 13 -32q0 -5 -2 -21l-74 -416q131 113 273 113q109 0 191 -51t126 -142t44 -209q0 -134 -58 -264.5t-174 -216t-279 -85.5q-78 0 -143.5 32.5t-108.5 89.5l-50 -283h167q27 0 39 -11t12 -40q0 -21 -6 -52q-7 -42 -17.5 -64t-25 -30t-38.5 -8h-504
q-26 0 -38 10.5t-12 39.5q0 20 6 52q7 42 17 64t24.5 30.5t38.5 8.5h87l228 1290h-87q-27 0 -39 10.5t-12 39.5q0 21 6 52q7 42 17.5 64t25 30.5t38.5 8.5h274q28 0 41 -10zM576.5 672q-63.5 -47 -97.5 -120.5t-34 -149.5q0 -93 53 -145t138 -52t142.5 52t85 128.5
t27.5 147.5q0 87 -43.5 136.5t-121.5 49.5q-86 0 -149.5 -47z" />
    <glyph glyph-name="ydieresis" unicode="&#xff;" 
d="M1256 913q12 -11 12 -40q0 -20 -6 -52q-7 -42 -17.5 -64t-25 -30t-38.5 -8h-59l-520 -776q-95 -142 -171.5 -215t-161.5 -103.5t-212 -34.5q-32 -1 -48 21.5t-16 81.5q0 119 64 123q80 5 134.5 31.5t105.5 83t129 169.5l-192 619h-75q-27 0 -39 10.5t-12 39.5q0 21 6 52
q7 42 17.5 64t25 30.5t38.5 8.5h394q27 0 39 -11t12 -40q0 -20 -6 -52q-7 -42 -17.5 -64t-25 -30t-38.5 -8h-60l107 -380l241 380h-54q-27 0 -39 10.5t-12 39.5q0 21 6 52q7 42 17.5 64t25 30.5t38.5 8.5h394q27 0 39 -11zM618 1307q37 -38 37 -93q0 -47 -23.5 -85.5
t-63 -61t-83.5 -22.5q-57 0 -94.5 38t-37.5 93q0 47 24 85.5t63.5 61t83.5 22.5q57 0 94 -38zM1078 1307q37 -38 37 -93q0 -47 -23.5 -85.5t-63 -61t-83.5 -22.5q-57 0 -94.5 38t-37.5 93q0 47 24 85.5t63.5 61t83.5 22.5q57 0 94 -38z" />
    <glyph glyph-name="Amacron" unicode="&#x100;" 
d="M894 1171.5q22 -15.5 27 -49.5l129 -917h91q27 0 39 -10.5t12 -39.5q0 -20 -6 -52q-7 -42 -17.5 -64t-25 -30.5t-38.5 -8.5h-424q-27 0 -39 11t-12 40q0 21 6 52q7 42 17.5 64t25 30t38.5 8h90l-20 145h-364l-70 -145h70q27 0 39 -10.5t12 -39.5q0 -20 -6 -52
q-7 -42 -17.5 -64t-25 -30.5t-38.5 -8.5h-404q-27 0 -38.5 11t-11.5 41q0 16 5 51q7 42 17.5 64t25 30t38.5 8h80l390 777h-163q-27 0 -39 11t-12 40q0 21 6 52q7 42 17.5 64t25 30t38.5 8h470q40 0 62 -15.5zM716 982l-199 -427h249l-44 427h-6zM1068 1534q12 -11 12 -40
q0 -20 -6 -52q-7 -42 -17.5 -64t-25 -30t-38.5 -8h-562q-27 0 -39 10.5t-12 39.5q0 21 6 52q7 42 17.5 64t25 30.5t38.5 8.5h562q27 0 39 -11z" />
    <glyph glyph-name="amacron" unicode="&#x101;" 
d="M1152.5 214q11.5 -11 11.5 -42q0 -23 -6 -59q-11 -67 -29 -90t-54 -23h-24q-84 0 -142 32.5t-81 100.5q-149 -155 -364 -155q-108 0 -189 51t-125 142t-44 209q0 134 58 264.5t173 216t277 85.5q91 0 164.5 -44.5t110.5 -119.5l13 79q5 34 22.5 48.5t51.5 14.5h94
q28 0 41 -10t13 -32q0 -5 -2 -21l-90 -511q-4 -21 -4 -42q0 -83 82 -83h5q26 0 37.5 -11zM684 253q64 47 97.5 120.5t33.5 148.5q0 92 -53 144t-137 52q-85 0 -142 -51t-84 -126.5t-27 -149.5q0 -85 42.5 -135t120.5 -50q85 0 149 47zM1058 1264q12 -11 12 -40q0 -20 -6 -52
q-7 -42 -17.5 -64t-25 -30t-38.5 -8h-562q-27 0 -39 10.5t-12 39.5q0 21 6 52q7 42 17.5 64t25 30.5t38.5 8.5h562q27 0 39 -11z" />
    <glyph glyph-name="Abreve" unicode="&#x102;" 
d="M894 1171.5q22 -15.5 27 -49.5l129 -917h91q27 0 39 -10.5t12 -39.5q0 -20 -6 -52q-7 -42 -17.5 -64t-25 -30.5t-38.5 -8.5h-424q-27 0 -39 11t-12 40q0 21 6 52q7 42 17.5 64t25 30t38.5 8h90l-20 145h-364l-70 -145h70q27 0 39 -10.5t12 -39.5q0 -20 -6 -52
q-7 -42 -17.5 -64t-25 -30.5t-38.5 -8.5h-404q-27 0 -38.5 11t-11.5 41q0 16 5 51q7 42 17.5 64t25 30t38.5 8h80l390 777h-163q-27 0 -39 11t-12 40q0 21 6 52q7 42 17.5 64t25 30t38.5 8h470q40 0 62 -15.5zM716 982l-199 -427h249l-44 427h-6zM1128.5 1619.5
q14.5 -15.5 14.5 -33.5q0 -6 -4 -18q-49 -121 -152 -189t-260 -68q-160 0 -250.5 67t-111.5 190q-1 3 -1 8q0 19 14.5 37t40.5 29q29 13 54 13q30 0 40 -20q30 -61 83.5 -90.5t146.5 -29.5q91 0 147.5 29.5t104.5 90.5q17 20 47 20q22 0 49 -11q23 -9 37.5 -24.5z" />
    <glyph glyph-name="abreve" unicode="&#x103;" 
d="M1118.5 1349.5q14.5 -15.5 14.5 -33.5q0 -6 -4 -18q-49 -121 -152 -189t-260 -68q-160 0 -250.5 67t-111.5 190q-1 3 -1 8q0 19 14.5 37t40.5 29q29 13 54 13q30 0 40 -20q30 -61 83.5 -90.5t146.5 -29.5q91 0 147.5 29.5t104.5 90.5q17 20 47 20q22 0 49 -11
q23 -9 37.5 -24.5zM1152.5 214q11.5 -11 11.5 -42q0 -23 -6 -59q-11 -67 -29 -90t-54 -23h-24q-84 0 -142 32.5t-81 100.5q-149 -155 -364 -155q-108 0 -189 51t-125 142t-44 209q0 134 58 264.5t173 216t277 85.5q91 0 164.5 -44.5t110.5 -119.5l13 79q5 34 22.5 48.5
t51.5 14.5h94q28 0 41 -10t13 -32q0 -5 -2 -21l-90 -511q-4 -21 -4 -42q0 -83 82 -83h5q26 0 37.5 -11zM684 253q64 47 97.5 120.5t33.5 148.5q0 92 -53 144t-137 52q-85 0 -142 -51t-84 -126.5t-27 -149.5q0 -85 42.5 -135t120.5 -50q85 0 149 47z" />
    <glyph glyph-name="Aogonek" unicode="&#x104;" 
d="M894 1171.5q22 -15.5 27 -49.5l129 -917h91q27 0 39 -10.5t12 -39.5q0 -20 -6 -52q-7 -42 -17.5 -64t-25 -30.5t-38.5 -8.5h-65q-96 -71 -148.5 -129t-52.5 -106q0 -63 78 -63q45 0 119 13q20 4 34 -12.5t18 -52.5q1 -7 1 -20q0 -53 -41 -66q-51 -16 -115 -26t-122 -10
q-104 0 -163 45.5t-59 126.5q0 89 61.5 163t170.5 137h-140q-27 0 -39 11t-12 40q0 21 6 52q7 42 17.5 64t25 30t38.5 8h90l-20 145h-364l-70 -145h70q27 0 39 -10.5t12 -39.5q0 -20 -6 -52q-7 -42 -17.5 -64t-25 -30.5t-38.5 -8.5h-404q-27 0 -38.5 11t-11.5 41q0 16 5 51
q7 42 17.5 64t25 30t38.5 8h80l390 777h-163q-27 0 -39 11t-12 40q0 21 6 52q7 42 17.5 64t25 30t38.5 8h470q40 0 62 -15.5zM716 982l-199 -427h249l-44 427h-6z" />
    <glyph glyph-name="aogonek" unicode="&#x105;" 
d="M943.5 -128q-53.5 -59 -53.5 -107q0 -63 78 -63q45 0 119 13q20 4 34 -12.5t18 -52.5q1 -7 1 -20q0 -53 -41 -66q-51 -16 -115 -26t-122 -10q-104 0 -163 45.5t-59 126.5q0 99 75 178.5t205 148.5q-67 34 -92 106q-149 -155 -364 -155q-108 0 -189 51t-125 142t-44 209
q0 134 58 264.5t173 216t277 85.5q91 0 164.5 -44.5t110.5 -119.5l13 79q5 34 22.5 48.5t51.5 14.5h94q28 0 41 -10t13 -32q0 -5 -2 -21l-90 -511q-4 -21 -4 -42q0 -83 82 -83h5q26 0 37.5 -11t11.5 -42q0 -23 -6 -59q-9 -58 -24 -82.5t-41 -29.5q-96 -70 -149.5 -129z
M684 253q64 47 97.5 120.5t33.5 148.5q0 92 -53 144t-137 52q-85 0 -142 -51t-84 -126.5t-27 -149.5q0 -85 42.5 -135t120.5 -50q85 0 149 47z" />
    <glyph glyph-name="Cacute" unicode="&#x106;" 
d="M1226 1198q22 -11 22 -36q0 -4 -2 -16l-68 -384q-6 -34 -39 -48.5t-104 -14.5q-61 0 -85 11t-24 36q0 4 2 16q5 32 5 54q0 77 -45 121.5t-131 44.5q-130 0 -211.5 -82.5t-116.5 -199t-35 -225.5q0 -130 60.5 -200t175.5 -70q86 0 166.5 24t185.5 73q14 7 30 7
q46 0 70 -84q11 -41 11 -66q0 -28 -12 -46t-36 -29q-232 -106 -445 -106q-142 0 -249 60.5t-165 172t-58 260.5q0 181 73 351.5t216 278.5t340 108q90 0 153 -35.5t93 -95.5l13 68q7 34 38 48.5t95 14.5q55 0 77 -11zM1026 1670q49 0 93 -99q26 -61 26 -97q0 -38 -29 -46
l-480 -125q-6 -2 -16 -2q-18 0 -31.5 11t-20.5 30q-5 13 -5 25q0 14 7.5 27t20.5 21l408 247q14 8 27 8z" />
    <glyph glyph-name="cacute" unicode="&#x107;" 
d="M946 1400q49 0 93 -99q26 -61 26 -97q0 -38 -29 -46l-480 -125q-6 -2 -16 -2q-18 0 -31.5 11t-20.5 30q-5 13 -5 25q0 14 7.5 27t20.5 21l408 247q14 8 27 8zM1128 935q22 -11 22 -36q0 -4 -2 -16l-56 -321q-6 -34 -39.5 -48.5t-104.5 -14.5q-60 0 -84 11t-24 36
q0 4 2 16q2 9 2 28q0 56 -39.5 92.5t-114.5 36.5q-93 0 -158.5 -47.5t-98.5 -120.5t-33 -149q0 -92 53 -144.5t147 -52.5q77 0 161.5 25t168.5 69q17 9 31 9q43 0 74 -83q15 -42 15 -71q0 -25 -11 -42t-34 -29q-100 -49 -213.5 -77t-216.5 -28q-134 0 -234 53t-153.5 146.5
t-53.5 211.5q0 137 64.5 265.5t188.5 210t293 81.5q82 0 143.5 -31.5t84.5 -90.5l10 59q6 34 37.5 48.5t95.5 14.5q55 0 77 -11z" />
    <glyph glyph-name="Ccircumflex" unicode="&#x108;" 
d="M1226 1198q22 -11 22 -36q0 -4 -2 -16l-68 -384q-6 -34 -39 -48.5t-104 -14.5q-61 0 -85 11t-24 36q0 4 2 16q5 32 5 54q0 77 -45 121.5t-131 44.5q-130 0 -211.5 -82.5t-116.5 -199t-35 -225.5q0 -130 60.5 -200t175.5 -70q86 0 166.5 24t185.5 73q14 7 30 7
q46 0 70 -84q11 -41 11 -66q0 -28 -12 -46t-36 -29q-232 -106 -445 -106q-142 0 -249 60.5t-165 172t-58 260.5q0 181 73 351.5t216 278.5t340 108q90 0 153 -35.5t93 -95.5l13 68q7 34 38 48.5t95 14.5q55 0 77 -11zM893 1658l251 -261q15 -15 15 -35q0 -16 -13 -37
q-20 -32 -48 -32q-12 0 -24 6l-255 134l-303 -134q-12 -5 -20 -5q-25 0 -44 35q-11 19 -11 34q0 19 19 34l323 261q24 18 58 18q37 0 52 -18z" />
    <glyph glyph-name="ccircumflex" unicode="&#x109;" 
d="M1128 935q22 -11 22 -36q0 -4 -2 -16l-56 -321q-6 -34 -39.5 -48.5t-104.5 -14.5q-60 0 -84 11t-24 36q0 4 2 16q2 9 2 28q0 56 -39.5 92.5t-114.5 36.5q-93 0 -158.5 -47.5t-98.5 -120.5t-33 -149q0 -92 53 -144.5t147 -52.5q77 0 161.5 25t168.5 69q17 9 31 9
q43 0 74 -83q15 -42 15 -71q0 -25 -11 -42t-34 -29q-100 -49 -213.5 -77t-216.5 -28q-134 0 -234 53t-153.5 146.5t-53.5 211.5q0 137 64.5 265.5t188.5 210t293 81.5q82 0 143.5 -31.5t84.5 -90.5l10 59q6 34 37.5 48.5t95.5 14.5q55 0 77 -11zM813 1388l251 -261
q15 -15 15 -35q0 -16 -13 -37q-20 -32 -48 -32q-12 0 -24 6l-255 134l-303 -134q-12 -5 -20 -5q-25 0 -44 35q-11 19 -11 34q0 19 19 34l323 261q24 18 58 18q37 0 52 -18z" />
    <glyph glyph-name="Cdotaccent" unicode="&#x10a;" 
d="M1226 1198q22 -11 22 -36q0 -4 -2 -16l-68 -384q-6 -34 -39 -48.5t-104 -14.5q-61 0 -85 11t-24 36q0 4 2 16q5 32 5 54q0 77 -45 121.5t-131 44.5q-130 0 -211.5 -82.5t-116.5 -199t-35 -225.5q0 -130 60.5 -200t175.5 -70q86 0 166.5 24t185.5 73q14 7 30 7
q46 0 70 -84q11 -41 11 -66q0 -28 -12 -46t-36 -29q-232 -106 -445 -106q-142 0 -249 60.5t-165 172t-58 260.5q0 181 73 351.5t216 278.5t340 108q90 0 153 -35.5t93 -95.5l13 68q7 34 38 48.5t95 14.5q55 0 77 -11zM915 1655q36 -21 56.5 -57t20.5 -79q0 -52 -26 -99
t-72.5 -75.5t-105.5 -28.5q-45 0 -81.5 21.5t-57 58t-20.5 79.5q0 50 27 96.5t74 75.5t104 29q45 0 81 -21z" />
    <glyph glyph-name="cdotaccent" unicode="&#x10b;" 
d="M1128 935q22 -11 22 -36q0 -4 -2 -16l-56 -321q-6 -34 -39.5 -48.5t-104.5 -14.5q-60 0 -84 11t-24 36q0 4 2 16q2 9 2 28q0 56 -39.5 92.5t-114.5 36.5q-93 0 -158.5 -47.5t-98.5 -120.5t-33 -149q0 -92 53 -144.5t147 -52.5q77 0 161.5 25t168.5 69q17 9 31 9
q43 0 74 -83q15 -42 15 -71q0 -25 -11 -42t-34 -29q-100 -49 -213.5 -77t-216.5 -28q-134 0 -234 53t-153.5 146.5t-53.5 211.5q0 137 64.5 265.5t188.5 210t293 81.5q82 0 143.5 -31.5t84.5 -90.5l10 59q6 34 37.5 48.5t95.5 14.5q55 0 77 -11zM845 1385q36 -21 56.5 -57
t20.5 -79q0 -52 -26 -99t-72.5 -75.5t-105.5 -28.5q-45 0 -81.5 21.5t-57 58t-20.5 79.5q0 50 27 96.5t74 75.5t104 29q45 0 81 -21z" />
    <glyph glyph-name="Ccaron" unicode="&#x10c;" 
d="M1226 1198q22 -11 22 -36q0 -4 -2 -16l-68 -384q-6 -34 -39 -48.5t-104 -14.5q-61 0 -85 11t-24 36q0 4 2 16q5 32 5 54q0 77 -45 121.5t-131 44.5q-130 0 -211.5 -82.5t-116.5 -199t-35 -225.5q0 -130 60.5 -200t175.5 -70q86 0 166.5 24t185.5 73q14 7 30 7
q46 0 70 -84q11 -41 11 -66q0 -28 -12 -46t-36 -29q-232 -106 -445 -106q-142 0 -249 60.5t-165 172t-58 260.5q0 181 73 351.5t216 278.5t340 108q90 0 153 -35.5t93 -95.5l13 68q7 34 38 48.5t95 14.5q55 0 77 -11zM1136 1659q25 0 44 -35q10 -20 10 -34q0 -19 -18 -34
l-323 -261q-24 -18 -58 -18t-52 18l-251 261q-15 15 -15 35q0 16 13 37q20 32 48 32q12 0 24 -6l255 -134l303 134q12 5 20 5z" />
    <glyph glyph-name="ccaron" unicode="&#x10d;" 
d="M1056 1399q25 0 44 -35q10 -20 10 -34q0 -19 -18 -34l-323 -261q-24 -18 -58 -18t-52 18l-251 261q-15 15 -15 35q0 16 13 37q20 32 48 32q12 0 24 -6l255 -134l303 134q12 5 20 5zM1128 935q22 -11 22 -36q0 -4 -2 -16l-56 -321q-6 -34 -39.5 -48.5t-104.5 -14.5
q-60 0 -84 11t-24 36q0 4 2 16q2 9 2 28q0 56 -39.5 92.5t-114.5 36.5q-93 0 -158.5 -47.5t-98.5 -120.5t-33 -149q0 -92 53 -144.5t147 -52.5q77 0 161.5 25t168.5 69q17 9 31 9q43 0 74 -83q15 -42 15 -71q0 -25 -11 -42t-34 -29q-100 -49 -213.5 -77t-216.5 -28
q-134 0 -234 53t-153.5 146.5t-53.5 211.5q0 137 64.5 265.5t188.5 210t293 81.5q82 0 143.5 -31.5t84.5 -90.5l10 59q6 34 37.5 48.5t95.5 14.5q55 0 77 -11z" />
    <glyph glyph-name="Dcaron" unicode="&#x10e;" 
d="M973 1131q109 -56 167 -161.5t58 -251.5q0 -158 -57.5 -321t-203.5 -280t-393 -117h-491q-27 0 -39 11t-12 40q0 25 5 51q11 61 29 82t53 21h97l137 777h-97q-27 0 -39 10.5t-12 39.5q0 21 6 52q7 42 17.5 64t25 30.5t38.5 8.5h451q151 0 260 -56zM438 215h104
q138 0 225.5 75t126 188t38.5 234q0 129 -64.5 194.5t-192.5 65.5h-104zM1066 1649q25 0 44 -35q10 -20 10 -34q0 -19 -18 -34l-323 -261q-24 -18 -58 -18t-52 18l-251 261q-15 15 -15 35q0 16 13 37q20 32 48 32q12 0 24 -6l255 -134l303 134q12 5 20 5z" />
    <glyph glyph-name="dcaron" unicode="&#x10f;" 
d="M1060 1302q13 -10 13 -32q0 -5 -2 -21l-184 -1044h87q27 0 39 -10.5t12 -39.5q0 -20 -6 -52q-7 -42 -17.5 -64t-25 -30.5t-38.5 -8.5h-234q-28 0 -41 10t-13 32q0 5 2 21l12 69q-60 -77 -127.5 -115.5t-152.5 -38.5q-97 0 -165.5 48.5t-103.5 134.5t-35 196
q0 137 50.5 273.5t152 226t246.5 89.5q147 0 217 -125l50 286h-147q-27 0 -39 10.5t-12 39.5q0 21 6 52q7 42 17.5 64t25 30.5t38.5 8.5h334q28 0 41 -10zM1556 1290q0 -13 -11 -30l-255 -393q-18 -28 -41 -39t-61 -11q-65 0 -65 42q0 13 6 29l139 391q6 16 19 24.5t30 8.5
h214q25 0 25 -22zM441.5 666.5q-47.5 -52.5 -71 -132t-23.5 -158.5q0 -83 32 -127t95 -44q72 0 122.5 52.5t75.5 131t25 153.5q0 87 -37.5 132t-104.5 45q-66 0 -113.5 -52.5z" />
    <glyph glyph-name="Dcroat" unicode="&#x110;" 
d="M973 1131q109 -56 167 -161.5t58 -251.5q0 -158 -57.5 -321t-203.5 -280t-393 -117h-491q-27 0 -39 11t-12 40q0 25 5 51q11 61 29 82t53 21h97l54 308h-82q-27 0 -39 10.5t-12 39.5q0 21 6 52q7 42 17.5 64t25 30.5t38.5 8.5h82l47 264h-97q-27 0 -39 10.5t-12 39.5
q0 21 6 52q7 42 17.5 64t25 30.5t38.5 8.5h451q151 0 260 -56zM767.5 290q87.5 75 126 188t38.5 234q0 129 -64.5 194.5t-192.5 65.5h-104l-45 -254h230q27 0 39 -11t12 -40q0 -20 -6 -52q-7 -42 -17.5 -64t-25 -30t-38.5 -8h-230l-52 -298h104q138 0 225.5 75z" />
    <glyph glyph-name="dcroat" unicode="&#x111;" 
d="M1300 1144.5q12 -10.5 12 -39.5q0 -20 -6 -53q-7 -42 -17 -64t-24.5 -30t-38.5 -8h-108l-131 -745h87q27 0 39 -10.5t12 -39.5q0 -20 -6 -52q-7 -42 -17.5 -64t-25 -30.5t-38.5 -8.5h-234q-28 0 -41 10t-13 32q0 5 2 21l8 47q-55 -64 -131 -98t-163 -34
q-111 0 -188.5 46.5t-117 128t-39.5 186.5q0 133 55 249t159.5 187t247.5 71q78 0 142.5 -32.5t103.5 -89.5l40 226h-205q-27 0 -39 11t-12 41q0 17 5 50q11 61 29 82t53 21h205l16 94q6 34 23 48.5t51 14.5h124q28 0 41 -10t13 -32q0 -5 -2 -21l-17 -94h108q26 0 38 -10.5z
M670 243q55 33 84 87.5t29 116.5q0 80 -50 123.5t-131 43.5q-67 0 -116 -33t-75 -89t-26 -122q0 -75 40.5 -117.5t114.5 -42.5q75 0 130 33z" />
    <glyph glyph-name="Emacron" unicode="&#x112;" 
d="M1216 1176.5q13 -10.5 13 -33.5q0 -5 -2 -21l-53 -302q-6 -34 -37.5 -48.5t-95.5 -14.5q-55 0 -77 11t-22 36q0 4 2 16l27 152h-400l-45 -253h244q26 0 38 -12t12 -42q0 -21 -6 -54q-11 -62 -29 -84.5t-53 -22.5h-244l-51 -289h410l36 202q6 34 38 48.5t99 14.5
q58 0 81.5 -11t23.5 -36q0 -4 -2 -16l-62 -352q-6 -35 -24 -50t-52 -15h-932q-27 0 -39 11t-12 40q0 25 5 51q11 61 29 82t53 21h97l137 777h-97q-27 0 -39 10.5t-12 39.5q0 21 6 52q7 42 17.5 64t25 30.5t38.5 8.5h912q29 0 42 -10.5zM1118 1534q12 -11 12 -40
q0 -20 -6 -52q-7 -42 -17.5 -64t-25 -30t-38.5 -8h-562q-27 0 -39 10.5t-12 39.5q0 21 6 52q7 42 17.5 64t25 30.5t38.5 8.5h562q27 0 39 -11z" />
    <glyph glyph-name="emacron" unicode="&#x113;" 
d="M974 264q23 0 36 -19.5t23 -68.5q6 -31 6 -54q0 -31 -13 -47.5t-42 -25.5q-108 -34 -221.5 -52.5t-218.5 -18.5q-127 0 -219 51.5t-140 142.5t-48 207q0 156 69 285t200 205.5t308 76.5q116 0 204 -39.5t136.5 -110.5t48.5 -162q0 -114 -62.5 -180.5t-188.5 -79.5
l-453 -45q15 -61 62 -92.5t123 -31.5q174 0 365 55q12 4 25 4zM412 516l349 35q42 4 60 24t18 49q0 40 -37.5 67.5t-113.5 27.5q-216 0 -276 -203zM1058 1264q12 -11 12 -40q0 -20 -6 -52q-7 -42 -17.5 -64t-25 -30t-38.5 -8h-562q-27 0 -39 10.5t-12 39.5q0 21 6 52
q7 42 17.5 64t25 30.5t38.5 8.5h562q27 0 39 -11z" />
    <glyph glyph-name="Ebreve" unicode="&#x114;" 
d="M1216 1176.5q13 -10.5 13 -33.5q0 -5 -2 -21l-53 -302q-6 -34 -37.5 -48.5t-95.5 -14.5q-55 0 -77 11t-22 36q0 4 2 16l27 152h-400l-45 -253h244q26 0 38 -12t12 -42q0 -21 -6 -54q-11 -62 -29 -84.5t-53 -22.5h-244l-51 -289h410l36 202q6 34 38 48.5t99 14.5
q58 0 81.5 -11t23.5 -36q0 -4 -2 -16l-62 -352q-6 -35 -24 -50t-52 -15h-932q-27 0 -39 11t-12 40q0 25 5 51q11 61 29 82t53 21h97l137 777h-97q-27 0 -39 10.5t-12 39.5q0 21 6 52q7 42 17.5 64t25 30.5t38.5 8.5h912q29 0 42 -10.5zM1168.5 1619.5q14.5 -15.5 14.5 -33.5
q0 -6 -4 -18q-49 -121 -152 -189t-260 -68q-160 0 -250.5 67t-111.5 190q-1 3 -1 8q0 19 14.5 37t40.5 29q29 13 54 13q30 0 40 -20q30 -61 83.5 -90.5t146.5 -29.5q91 0 147.5 29.5t104.5 90.5q17 20 47 20q22 0 49 -11q23 -9 37.5 -24.5z" />
    <glyph glyph-name="ebreve" unicode="&#x115;" 
d="M1128.5 1349.5q14.5 -15.5 14.5 -33.5q0 -6 -4 -18q-49 -121 -152 -189t-260 -68q-160 0 -250.5 67t-111.5 190q-1 3 -1 8q0 19 14.5 37t40.5 29q29 13 54 13q30 0 40 -20q30 -61 83.5 -90.5t146.5 -29.5q91 0 147.5 29.5t104.5 90.5q17 20 47 20q22 0 49 -11
q23 -9 37.5 -24.5zM974 264q23 0 36 -19.5t23 -68.5q6 -31 6 -54q0 -31 -13 -47.5t-42 -25.5q-108 -34 -221.5 -52.5t-218.5 -18.5q-127 0 -219 51.5t-140 142.5t-48 207q0 156 69 285t200 205.5t308 76.5q116 0 204 -39.5t136.5 -110.5t48.5 -162q0 -114 -62.5 -180.5
t-188.5 -79.5l-453 -45q15 -61 62 -92.5t123 -31.5q174 0 365 55q12 4 25 4zM412 516l349 35q42 4 60 24t18 49q0 40 -37.5 67.5t-113.5 27.5q-216 0 -276 -203z" />
    <glyph glyph-name="Edotaccent" unicode="&#x116;" 
d="M1216 1176.5q13 -10.5 13 -33.5q0 -5 -2 -21l-53 -302q-6 -34 -37.5 -48.5t-95.5 -14.5q-55 0 -77 11t-22 36q0 4 2 16l27 152h-400l-45 -253h244q26 0 38 -12t12 -42q0 -21 -6 -54q-11 -62 -29 -84.5t-53 -22.5h-244l-51 -289h410l36 202q6 34 38 48.5t99 14.5
q58 0 81.5 -11t23.5 -36q0 -4 -2 -16l-62 -352q-6 -35 -24 -50t-52 -15h-932q-27 0 -39 11t-12 40q0 25 5 51q11 61 29 82t53 21h97l137 777h-97q-27 0 -39 10.5t-12 39.5q0 21 6 52q7 42 17.5 64t25 30.5t38.5 8.5h912q29 0 42 -10.5zM885 1655q36 -21 56.5 -57t20.5 -79
q0 -52 -26 -99t-72.5 -75.5t-105.5 -28.5q-45 0 -81.5 21.5t-57 58t-20.5 79.5q0 50 27 96.5t74 75.5t104 29q45 0 81 -21z" />
    <glyph glyph-name="edotaccent" unicode="&#x117;" 
d="M974 264q23 0 36 -19.5t23 -68.5q6 -31 6 -54q0 -31 -13 -47.5t-42 -25.5q-108 -34 -221.5 -52.5t-218.5 -18.5q-127 0 -219 51.5t-140 142.5t-48 207q0 156 69 285t200 205.5t308 76.5q116 0 204 -39.5t136.5 -110.5t48.5 -162q0 -114 -62.5 -180.5t-188.5 -79.5
l-453 -45q15 -61 62 -92.5t123 -31.5q174 0 365 55q12 4 25 4zM412 516l349 35q42 4 60 24t18 49q0 40 -37.5 67.5t-113.5 27.5q-216 0 -276 -203zM830 1385q36 -21 56.5 -57t20.5 -79q0 -52 -26 -99t-72.5 -75.5t-105.5 -28.5q-45 0 -81.5 21.5t-57 58t-20.5 79.5
q0 50 27 96.5t74 75.5t104 29q45 0 81 -21z" />
    <glyph glyph-name="Eogonek" unicode="&#x118;" 
d="M1216 1176.5q13 -10.5 13 -33.5q0 -5 -2 -21l-53 -302q-6 -34 -37.5 -48.5t-95.5 -14.5q-55 0 -77 11t-22 36q0 4 2 16l27 152h-400l-45 -253h244q26 0 38 -12t12 -42q0 -21 -6 -54q-11 -62 -29 -84.5t-53 -22.5h-244l-51 -289h410l36 202q6 34 38 48.5t99 14.5
q58 0 81.5 -11t23.5 -36q0 -4 -2 -16l-62 -352q-6 -35 -24 -50t-52 -15h-15q-96 -71 -148.5 -129t-52.5 -106q0 -63 78 -63q45 0 119 13q20 4 34 -12.5t18 -52.5q1 -7 1 -20q0 -53 -41 -66q-51 -16 -115 -26t-122 -10q-104 0 -163 45.5t-59 126.5q0 89 61.5 163t170.5 137
h-698q-27 0 -39 11t-12 40q0 25 5 51q11 61 29 82t53 21h97l137 777h-97q-27 0 -39 10.5t-12 39.5q0 21 6 52q7 42 17.5 64t25 30.5t38.5 8.5h912q29 0 42 -10.5z" />
    <glyph glyph-name="eogonek" unicode="&#x119;" 
d="M974 264q23 0 36 -19.5t23 -68.5q7 -38 7 -55q0 -24 -8.5 -39.5t-26.5 -24.5q-13 -6 -86 -61q-94 -70 -145 -126.5t-51 -104.5q0 -63 78 -63q45 0 119 13q20 4 34 -12.5t18 -52.5q1 -7 1 -20q0 -53 -41 -66q-51 -16 -115 -26t-122 -10q-104 0 -163 45.5t-59 126.5
q0 85 55 155t153 131q-74 -8 -137 -8q-127 0 -219 51.5t-140 142.5t-48 207q0 156 69 285t200 205.5t308 76.5q116 0 204 -39.5t136.5 -110.5t48.5 -162q0 -114 -62.5 -180.5t-188.5 -79.5l-453 -45q15 -61 62 -92.5t123 -31.5q174 0 365 55q12 4 25 4zM412 516l349 35
q42 4 60 24t18 49q0 40 -37.5 67.5t-113.5 27.5q-216 0 -276 -203z" />
    <glyph glyph-name="Ecaron" unicode="&#x11a;" 
d="M1216 1176.5q13 -10.5 13 -33.5q0 -5 -2 -21l-53 -302q-6 -34 -37.5 -48.5t-95.5 -14.5q-55 0 -77 11t-22 36q0 4 2 16l27 152h-400l-45 -253h244q26 0 38 -12t12 -42q0 -21 -6 -54q-11 -62 -29 -84.5t-53 -22.5h-244l-51 -289h410l36 202q6 34 38 48.5t99 14.5
q58 0 81.5 -11t23.5 -36q0 -4 -2 -16l-62 -352q-6 -35 -24 -50t-52 -15h-932q-27 0 -39 11t-12 40q0 25 5 51q11 61 29 82t53 21h97l137 777h-97q-27 0 -39 10.5t-12 39.5q0 21 6 52q7 42 17.5 64t25 30.5t38.5 8.5h912q29 0 42 -10.5zM1086 1649q25 0 44 -35q10 -20 10 -34
q0 -19 -18 -34l-323 -261q-24 -18 -58 -18t-52 18l-251 261q-15 15 -15 35q0 16 13 37q20 32 48 32q12 0 24 -6l255 -134l303 134q12 5 20 5z" />
    <glyph glyph-name="ecaron" unicode="&#x11b;" 
d="M1036 1399q25 0 44 -35q10 -20 10 -34q0 -19 -18 -34l-323 -261q-24 -18 -58 -18t-52 18l-251 261q-15 15 -15 35q0 16 13 37q20 32 48 32q12 0 24 -6l255 -134l303 134q12 5 20 5zM974 264q23 0 36 -19.5t23 -68.5q6 -31 6 -54q0 -31 -13 -47.5t-42 -25.5
q-108 -34 -221.5 -52.5t-218.5 -18.5q-127 0 -219 51.5t-140 142.5t-48 207q0 156 69 285t200 205.5t308 76.5q116 0 204 -39.5t136.5 -110.5t48.5 -162q0 -114 -62.5 -180.5t-188.5 -79.5l-453 -45q15 -61 62 -92.5t123 -31.5q174 0 365 55q12 4 25 4zM412 516l349 35
q42 4 60 24t18 49q0 40 -37.5 67.5t-113.5 27.5q-216 0 -276 -203z" />
    <glyph glyph-name="Gcircumflex" unicode="&#x11c;" 
d="M1196 1198q22 -11 22 -36q0 -4 -2 -16l-61 -344q-6 -34 -39 -48.5t-104 -14.5q-61 0 -85 11t-24 36q0 4 2 16q4 20 4 42q0 67 -45 102.5t-137 35.5q-130 0 -211.5 -82.5t-116.5 -199t-35 -225.5q0 -130 60.5 -200t175.5 -70q110 0 215 30l29 167h-193q-27 0 -39 10.5
t-12 39.5q0 21 6 52q11 61 29 82t53 21h474q26 0 38 -10.5t12 -39.5q0 -20 -6 -53q-7 -42 -17.5 -64t-25 -30t-38.5 -8h-31l-47 -269q-5 -24 -17.5 -42.5t-30.5 -26.5q-189 -86 -429 -86q-142 0 -249 60.5t-165 172t-58 260.5q0 181 73 351.5t216 278.5t340 108
q90 0 154 -33t94 -90l11 60q6 34 37.5 48.5t95.5 14.5q55 0 77 -11zM863 1658l251 -261q15 -15 15 -35q0 -16 -13 -37q-20 -32 -48 -32q-12 0 -24 6l-255 134l-303 -134q-12 -5 -20 -5q-25 0 -44 35q-11 19 -11 34q0 19 19 34l323 261q24 18 58 18q37 0 52 -18z" />
    <glyph glyph-name="gcircumflex" unicode="&#x11d;" 
d="M823 1388l251 -261q15 -15 15 -35q0 -16 -13 -37q-20 -32 -48 -32q-12 0 -24 6l-255 134l-303 -134q-12 -5 -20 -5q-25 0 -44 35q-11 19 -11 34q0 19 19 34l323 261q24 18 58 18q37 0 52 -18zM808 906.5q73 -39.5 117 -115.5l14 80q6 33 36 48t87 15q49 0 69 -10.5
t20 -35.5q0 -5 -2 -17l-153 -870q-35 -198 -164.5 -304.5t-362.5 -106.5q-79 0 -173 17.5t-189 51.5q-21 8 -31.5 21t-10.5 35q0 27 18 75q19 48 39 68.5t43 20.5q11 0 26 -5q71 -26 148 -41.5t140 -15.5q123 0 187.5 51t82.5 153l18 102q-60 -55 -130 -85t-143 -30
q-112 0 -194.5 50t-126 138t-43.5 199q0 135 58 262t173.5 208t277.5 81q96 0 169 -39.5zM510 673q-57 -46 -85 -116.5t-28 -144.5q0 -85 44 -131t123 -46q88 0 150.5 43.5t94.5 112t32 143.5q0 90 -53.5 137.5t-138.5 47.5q-82 0 -139 -46z" />
    <glyph glyph-name="Gbreve" unicode="&#x11e;" 
d="M1196 1198q22 -11 22 -36q0 -4 -2 -16l-61 -344q-6 -34 -39 -48.5t-104 -14.5q-61 0 -85 11t-24 36q0 4 2 16q4 20 4 42q0 67 -45 102.5t-137 35.5q-130 0 -211.5 -82.5t-116.5 -199t-35 -225.5q0 -130 60.5 -200t175.5 -70q110 0 215 30l29 167h-193q-27 0 -39 10.5
t-12 39.5q0 21 6 52q11 61 29 82t53 21h474q26 0 38 -10.5t12 -39.5q0 -20 -6 -53q-7 -42 -17.5 -64t-25 -30t-38.5 -8h-31l-47 -269q-5 -24 -17.5 -42.5t-30.5 -26.5q-189 -86 -429 -86q-142 0 -249 60.5t-165 172t-58 260.5q0 181 73 351.5t216 278.5t340 108
q90 0 154 -33t94 -90l11 60q6 34 37.5 48.5t95.5 14.5q55 0 77 -11zM1158.5 1619.5q14.5 -15.5 14.5 -33.5q0 -6 -4 -18q-49 -121 -152 -189t-260 -68q-160 0 -250.5 67t-111.5 190q-1 3 -1 8q0 19 14.5 37t40.5 29q29 13 54 13q30 0 40 -20q30 -61 83.5 -90.5t146.5 -29.5
q91 0 147.5 29.5t104.5 90.5q17 20 47 20q22 0 49 -11q23 -9 37.5 -24.5z" />
    <glyph glyph-name="gbreve" unicode="&#x11f;" 
d="M1128.5 1349.5q14.5 -15.5 14.5 -33.5q0 -6 -4 -18q-49 -121 -152 -189t-260 -68q-160 0 -250.5 67t-111.5 190q-1 3 -1 8q0 19 14.5 37t40.5 29q29 13 54 13q30 0 40 -20q30 -61 83.5 -90.5t146.5 -29.5q91 0 147.5 29.5t104.5 90.5q17 20 47 20q22 0 49 -11
q23 -9 37.5 -24.5zM808 906.5q73 -39.5 117 -115.5l14 80q6 33 36 48t87 15q49 0 69 -10.5t20 -35.5q0 -5 -2 -17l-153 -870q-35 -198 -164.5 -304.5t-362.5 -106.5q-79 0 -173 17.5t-189 51.5q-21 8 -31.5 21t-10.5 35q0 27 18 75q19 48 39 68.5t43 20.5q11 0 26 -5
q71 -26 148 -41.5t140 -15.5q123 0 187.5 51t82.5 153l18 102q-60 -55 -130 -85t-143 -30q-112 0 -194.5 50t-126 138t-43.5 199q0 135 58 262t173.5 208t277.5 81q96 0 169 -39.5zM510 673q-57 -46 -85 -116.5t-28 -144.5q0 -85 44 -131t123 -46q88 0 150.5 43.5t94.5 112
t32 143.5q0 90 -53.5 137.5t-138.5 47.5q-82 0 -139 -46z" />
    <glyph glyph-name="Gdotaccent" unicode="&#x120;" 
d="M1196 1198q22 -11 22 -36q0 -4 -2 -16l-61 -344q-6 -34 -39 -48.5t-104 -14.5q-61 0 -85 11t-24 36q0 4 2 16q4 20 4 42q0 67 -45 102.5t-137 35.5q-130 0 -211.5 -82.5t-116.5 -199t-35 -225.5q0 -130 60.5 -200t175.5 -70q110 0 215 30l29 167h-193q-27 0 -39 10.5
t-12 39.5q0 21 6 52q11 61 29 82t53 21h474q26 0 38 -10.5t12 -39.5q0 -20 -6 -53q-7 -42 -17.5 -64t-25 -30t-38.5 -8h-31l-47 -269q-5 -24 -17.5 -42.5t-30.5 -26.5q-189 -86 -429 -86q-142 0 -249 60.5t-165 172t-58 260.5q0 181 73 351.5t216 278.5t340 108
q90 0 154 -33t94 -90l11 60q6 34 37.5 48.5t95.5 14.5q55 0 77 -11zM895 1655q36 -21 56.5 -57t20.5 -79q0 -52 -26 -99t-72.5 -75.5t-105.5 -28.5q-45 0 -81.5 21.5t-57 58t-20.5 79.5q0 50 27 96.5t74 75.5t104 29q45 0 81 -21z" />
    <glyph glyph-name="gdotaccent" unicode="&#x121;" 
d="M808 906.5q73 -39.5 117 -115.5l14 80q6 33 36 48t87 15q49 0 69 -10.5t20 -35.5q0 -5 -2 -17l-153 -870q-35 -198 -164.5 -304.5t-362.5 -106.5q-79 0 -173 17.5t-189 51.5q-21 8 -31.5 21t-10.5 35q0 27 18 75q19 48 39 68.5t43 20.5q11 0 26 -5q71 -26 148 -41.5
t140 -15.5q123 0 187.5 51t82.5 153l18 102q-60 -55 -130 -85t-143 -30q-112 0 -194.5 50t-126 138t-43.5 199q0 135 58 262t173.5 208t277.5 81q96 0 169 -39.5zM510 673q-57 -46 -85 -116.5t-28 -144.5q0 -85 44 -131t123 -46q88 0 150.5 43.5t94.5 112t32 143.5
q0 90 -53.5 137.5t-138.5 47.5q-82 0 -139 -46zM850 1385q36 -21 56.5 -57t20.5 -79q0 -52 -26 -99t-72.5 -75.5t-105.5 -28.5q-45 0 -81.5 21.5t-57 58t-20.5 79.5q0 50 27 96.5t74 75.5t104 29q45 0 81 -21z" />
    <glyph glyph-name="uni0122" unicode="&#x122;" 
d="M1196 1198q22 -11 22 -36q0 -4 -2 -16l-61 -344q-6 -34 -39 -48.5t-104 -14.5q-61 0 -85 11t-24 36q0 4 2 16q4 20 4 42q0 67 -45 102.5t-137 35.5q-130 0 -211.5 -82.5t-116.5 -199t-35 -225.5q0 -130 60.5 -200t175.5 -70q110 0 215 30l29 167h-193q-27 0 -39 10.5
t-12 39.5q0 21 6 52q11 61 29 82t53 21h474q26 0 38 -10.5t12 -39.5q0 -20 -6 -53q-7 -42 -17.5 -64t-25 -30t-38.5 -8h-31l-47 -269q-5 -24 -17.5 -42.5t-30.5 -26.5q-189 -86 -429 -86q-142 0 -249 60.5t-165 172t-58 260.5q0 181 73 351.5t216 278.5t340 108
q90 0 154 -33t94 -90l11 60q6 34 37.5 48.5t95.5 14.5q55 0 77 -11zM712 -164q0 -12 -9 -25l-209 -313q-29 -43 -99 -43q-29 0 -43.5 9t-14.5 29q0 9 3 21l88 313q4 12 15 19.5t26 7.5h222q21 0 21 -18z" />
    <glyph glyph-name="uni0123" unicode="&#x123;" 
d="M585 1082q0 12 9 25l209 313q29 43 99 43q29 0 43.5 -9t14.5 -29q0 -9 -3 -21l-88 -313q-4 -12 -15 -19.5t-26 -7.5h-222q-21 0 -21 18zM808 906.5q73 -39.5 117 -115.5l14 80q6 33 36 48t87 15q49 0 69 -10.5t20 -35.5q0 -5 -2 -17l-153 -870q-35 -198 -164.5 -304.5
t-362.5 -106.5q-79 0 -173 17.5t-189 51.5q-21 8 -31.5 21t-10.5 35q0 27 18 75q19 48 39 68.5t43 20.5q11 0 26 -5q71 -26 148 -41.5t140 -15.5q123 0 187.5 51t82.5 153l18 102q-60 -55 -130 -85t-143 -30q-112 0 -194.5 50t-126 138t-43.5 199q0 135 58 262t173.5 208
t277.5 81q96 0 169 -39.5zM510 673q-57 -46 -85 -116.5t-28 -144.5q0 -85 44 -131t123 -46q88 0 150.5 43.5t94.5 112t32 143.5q0 90 -53.5 137.5t-138.5 47.5q-82 0 -139 -46z" />
    <glyph glyph-name="Hcircumflex" unicode="&#x124;" 
d="M1293 1176q12 -11 12 -40q0 -20 -6 -52q-7 -42 -17.5 -64t-25 -30t-38.5 -8h-57l-137 -777h57q26 0 38 -10.5t12 -39.5q0 -20 -6 -53q-7 -42 -17 -64t-24.5 -30t-38.5 -8h-374q-27 0 -39 11t-12 40q0 25 5 51q11 61 29 82t53 21h67l52 299h-388l-52 -299h67
q26 0 38 -10.5t12 -39.5q0 -20 -6 -53q-7 -42 -17 -64t-24.5 -30t-38.5 -8h-374q-27 0 -39 11t-12 40q0 25 5 51q11 61 29 82t53 21h57l137 777h-57q-27 0 -39 10.5t-12 39.5q0 21 6 52q7 42 17.5 64t25 30.5t38.5 8.5h374q27 0 39 -11t12 -40q0 -20 -6 -52
q-7 -42 -17.5 -64t-25 -30t-38.5 -8h-67l-47 -263h388l47 263h-67q-27 0 -39 10.5t-12 39.5q0 21 6 52q7 42 17.5 64t25 30.5t38.5 8.5h374q27 0 39 -11zM853 1658l251 -261q15 -15 15 -35q0 -16 -13 -37q-20 -32 -48 -32q-12 0 -24 6l-255 134l-303 -134q-12 -5 -20 -5
q-25 0 -44 35q-11 19 -11 34q0 19 19 34l323 261q24 18 58 18q37 0 52 -18z" />
    <glyph glyph-name="hcircumflex" unicode="&#x125;" 
d="M873 1758l251 -261q15 -15 15 -35q0 -16 -13 -37q-20 -32 -48 -32q-12 0 -24 6l-255 134l-303 -134q-12 -5 -20 -5q-25 0 -44 35q-11 19 -11 34q0 19 19 34l323 261q24 18 58 18q37 0 52 -18zM596 1302q13 -10 13 -32q0 -5 -2 -21l-84 -475q148 172 310 172q79 0 137 -34
t89.5 -95t31.5 -141q0 -32 -7 -76l-69 -395h77q26 0 38 -10.5t12 -39.5q0 -20 -6 -53q-7 -42 -17 -64t-24.5 -30t-38.5 -8h-264q-28 0 -41 10t-13 32q0 5 2 21l87 498q6 32 6 58q0 49 -22.5 74.5t-72.5 25.5q-58 0 -120 -55.5t-109.5 -144t-63.5 -181.5l-47 -275
q-6 -34 -23 -48.5t-51 -14.5h-124q-28 0 -41 10t-13 32q0 5 2 21l184 1044h-97q-27 0 -39 10.5t-12 39.5q0 21 6 52q7 42 17.5 64t25 30.5t38.5 8.5h284q28 0 41 -10z" />
    <glyph glyph-name="Hbar" unicode="&#x126;" 
d="M1293 1176q12 -11 12 -40q0 -20 -6 -52q-7 -42 -17.5 -64t-25 -30t-38.5 -8h-57l-14 -78h77q28 0 40.5 -10t12.5 -34q0 -15 -2 -24q-7 -37 -24 -52.5t-51 -15.5h-77l-99 -563h57q26 0 38 -10.5t12 -39.5q0 -20 -6 -53q-7 -42 -17 -64t-24.5 -30t-38.5 -8h-374
q-27 0 -39 11t-12 40q0 25 5 51q11 61 29 82t53 21h67l45 259h-388l-45 -259h67q26 0 38 -10.5t12 -39.5q0 -20 -6 -53q-7 -42 -17 -64t-24.5 -30t-38.5 -8h-374q-27 0 -39 11t-12 40q0 25 5 51q11 61 29 82t53 21h57l99 563h-77q-28 0 -40.5 10t-12.5 34q0 15 2 24
q7 37 24 52.5t51 15.5h77l14 78h-57q-27 0 -39 10.5t-12 39.5q0 21 6 52q7 42 17.5 64t25 30.5t38.5 8.5h374q27 0 39 -11t12 -40q0 -20 -6 -52q-7 -42 -17.5 -64t-25 -30t-38.5 -8h-67l-14 -78h388l14 78h-67q-27 0 -39 10.5t-12 39.5q0 21 6 52q7 42 17.5 64t25 30.5
t38.5 8.5h374q27 0 39 -11zM485 768l-16 -89h388l16 89h-388z" />
    <glyph glyph-name="hbar" unicode="&#x127;" 
d="M1130 194.5q12 -10.5 12 -39.5q0 -20 -6 -53q-7 -42 -17 -64t-24.5 -30t-38.5 -8h-264q-28 0 -41 10.5t-13 32.5q0 6 2 20l69 398q6 32 6 58q0 49 -22.5 74.5t-72.5 25.5q-58 0 -119.5 -51t-107.5 -134.5t-62 -175.5l-33 -195q-6 -34 -23 -48.5t-51 -14.5h-124
q-28 0 -41 10t-13 32q0 5 2 21l156 887h-114q-27 0 -39 10.5t-12 39.5q0 21 6 52q7 42 17.5 64t25 30.5t38.5 8.5h114l17 94q6 34 23 48.5t51 14.5h124q28 0 41 -10t13 -32q0 -5 -2 -21l-17 -94h198q27 0 39 -11t12 -40q0 -20 -6 -52q-7 -42 -17.5 -64t-25 -30t-38.5 -8
h-198l-49 -276q148 172 310 172q79 0 137 -34t89.5 -95t31.5 -141q0 -32 -7 -76l-51 -295h77q26 0 38 -10.5z" />
    <glyph glyph-name="Itilde" unicode="&#x128;" 
d="M1153 1176q12 -11 12 -40q0 -20 -6 -52q-7 -42 -17.5 -64t-25 -30t-38.5 -8h-236l-137 -777h256q26 0 38 -10.5t12 -39.5q0 -20 -6 -53q-7 -42 -17 -64t-24.5 -30t-38.5 -8h-742q-27 0 -39 11t-12 40q0 25 5 51q11 61 29 82t53 21h236l137 777h-256q-27 0 -39 10.5
t-12 39.5q0 21 6 52q7 42 17.5 64t25 30.5t38.5 8.5h742q27 0 39 -11zM701.5 1574.5q35.5 -9.5 84.5 -28.5q48 -18 78.5 -27t62.5 -9q63 0 122 31q14 7 23 7q31 0 55 -44q15 -28 15 -51q0 -26 -19 -42q-111 -93 -203 -93q-38 0 -73.5 10t-84.5 29q-45 17 -76.5 26t-63.5 9
q-65 0 -124 -31q-11 -6 -22 -6q-30 0 -54 44q-16 29 -16 52q0 25 18 40q106 93 205 93q37 0 72.5 -9.5z" />
    <glyph glyph-name="itilde" unicode="&#x129;" 
d="M571.5 1314.5q35.5 -9.5 84.5 -28.5q48 -18 78.5 -27t62.5 -9q63 0 122 31q14 7 23 7q31 0 55 -44q15 -28 15 -51q0 -26 -19 -42q-111 -93 -203 -93q-38 0 -73.5 10t-84.5 29q-45 17 -76.5 26t-63.5 9q-65 0 -124 -31q-11 -6 -22 -6q-30 0 -54 44q-16 29 -16 52
q0 25 18 40q106 93 205 93q37 0 72.5 -9.5zM763 914q13 -10 13 -32q0 -5 -2 -21l-88 -500q-5 -32 -5 -53q0 -53 24.5 -78t72.5 -25q49 0 94.5 14t108.5 48q20 11 36 11q22 0 39 -18t34 -56q21 -47 21 -70q0 -36 -41 -60q-94 -53 -170 -74.5t-164 -21.5q-146 0 -226.5 77
t-80.5 217q0 45 9 96l61 351h-193q-27 0 -39 10.5t-12 39.5q0 21 6 52q7 42 17.5 64t25 30.5t38.5 8.5h380q28 0 41 -10z" />
    <glyph glyph-name="Imacron" unicode="&#x12a;" 
d="M1153 1176q12 -11 12 -40q0 -20 -6 -52q-7 -42 -17.5 -64t-25 -30t-38.5 -8h-236l-137 -777h256q26 0 38 -10.5t12 -39.5q0 -20 -6 -53q-7 -42 -17 -64t-24.5 -30t-38.5 -8h-742q-27 0 -39 11t-12 40q0 25 5 51q11 61 29 82t53 21h236l137 777h-256q-27 0 -39 10.5
t-12 39.5q0 21 6 52q7 42 17.5 64t25 30.5t38.5 8.5h742q27 0 39 -11zM1118 1534q12 -11 12 -40q0 -20 -6 -52q-7 -42 -17.5 -64t-25 -30t-38.5 -8h-562q-27 0 -39 10.5t-12 39.5q0 21 6 52q7 42 17.5 64t25 30.5t38.5 8.5h562q27 0 39 -11z" />
    <glyph glyph-name="imacron" unicode="&#x12b;" 
d="M763 914q13 -10 13 -32q0 -5 -2 -21l-88 -500q-5 -32 -5 -53q0 -53 24.5 -78t72.5 -25q49 0 94.5 14t108.5 48q20 11 36 11q22 0 39 -18t34 -56q21 -47 21 -70q0 -36 -41 -60q-94 -53 -170 -74.5t-164 -21.5q-146 0 -226.5 77t-80.5 217q0 45 9 96l61 351h-193
q-27 0 -39 10.5t-12 39.5q0 21 6 52q7 42 17.5 64t25 30.5t38.5 8.5h380q28 0 41 -10zM968 1264q12 -11 12 -40q0 -20 -6 -52q-7 -42 -17.5 -64t-25 -30t-38.5 -8h-562q-27 0 -39 10.5t-12 39.5q0 21 6 52q7 42 17.5 64t25 30.5t38.5 8.5h562q27 0 39 -11z" />
    <glyph glyph-name="Ibreve" unicode="&#x12c;" 
d="M1153 1176q12 -11 12 -40q0 -20 -6 -52q-7 -42 -17.5 -64t-25 -30t-38.5 -8h-236l-137 -777h256q26 0 38 -10.5t12 -39.5q0 -20 -6 -53q-7 -42 -17 -64t-24.5 -30t-38.5 -8h-742q-27 0 -39 11t-12 40q0 25 5 51q11 61 29 82t53 21h236l137 777h-256q-27 0 -39 10.5
t-12 39.5q0 21 6 52q7 42 17.5 64t25 30.5t38.5 8.5h742q27 0 39 -11zM1158.5 1619.5q14.5 -15.5 14.5 -33.5q0 -6 -4 -18q-49 -121 -152 -189t-260 -68q-160 0 -250.5 67t-111.5 190q-1 3 -1 8q0 19 14.5 37t40.5 29q29 13 54 13q30 0 40 -20q30 -61 83.5 -90.5
t146.5 -29.5q91 0 147.5 29.5t104.5 90.5q17 20 47 20q22 0 49 -11q23 -9 37.5 -24.5z" />
    <glyph glyph-name="ibreve" unicode="&#x12d;" 
d="M763 914q13 -10 13 -32q0 -5 -2 -21l-88 -500q-5 -32 -5 -53q0 -53 24.5 -78t72.5 -25q49 0 94.5 14t108.5 48q20 11 36 11q22 0 39 -18t34 -56q21 -47 21 -70q0 -36 -41 -60q-94 -53 -170 -74.5t-164 -21.5q-146 0 -226.5 77t-80.5 217q0 45 9 96l61 351h-193
q-27 0 -39 10.5t-12 39.5q0 21 6 52q7 42 17.5 64t25 30.5t38.5 8.5h380q28 0 41 -10zM1048.5 1349.5q14.5 -15.5 14.5 -33.5q0 -6 -4 -18q-49 -121 -152 -189t-260 -68q-160 0 -250.5 67t-111.5 190q-1 3 -1 8q0 19 14.5 37t40.5 29q29 13 54 13q30 0 40 -20
q30 -61 83.5 -90.5t146.5 -29.5q91 0 147.5 29.5t104.5 90.5q17 20 47 20q22 0 49 -11q23 -9 37.5 -24.5z" />
    <glyph glyph-name="Iogonek" unicode="&#x12e;" 
d="M1153 1176q12 -11 12 -40q0 -20 -6 -52q-7 -42 -17.5 -64t-25 -30t-38.5 -8h-236l-137 -777h256q26 0 38 -10.5t12 -39.5q0 -20 -6 -53q-7 -42 -17 -64t-24.5 -30t-38.5 -8h-265q-96 -71 -148.5 -129t-52.5 -106q0 -63 78 -63q45 0 119 13q20 4 34 -12.5t18 -52.5
q1 -7 1 -20q0 -53 -41 -66q-51 -16 -115 -26t-122 -10q-104 0 -163 45.5t-59 126.5q0 89 61.5 163t170.5 137h-258q-27 0 -39 11t-12 40q0 25 5 51q11 61 29 82t53 21h236l137 777h-256q-27 0 -39 10.5t-12 39.5q0 21 6 52q7 42 17.5 64t25 30.5t38.5 8.5h742q27 0 39 -11z
" />
    <glyph glyph-name="iogonek" unicode="&#x12f;" 
d="M601.5 1104.5q-26.5 11.5 -26.5 38.5q0 8 1 13l29 164q6 35 34.5 49t98.5 14q63 0 90.5 -12t27.5 -38q0 -8 -1 -13l-29 -164q-6 -35 -35 -49t-99 -14q-64 0 -90.5 11.5zM1111 134q0 -36 -41 -60q-65 -36 -119 -57t-109 -31q-87 -66 -135 -120.5t-48 -100.5q0 -63 78 -63
q45 0 119 13q20 4 34 -12.5t18 -52.5q1 -7 1 -20q0 -53 -41 -66q-51 -16 -115 -26t-122 -10q-104 0 -163 45.5t-59 126.5q0 160 218 291q-96 26 -147 98.5t-51 182.5q0 45 9 96l61 351h-193q-27 0 -39 10.5t-12 39.5q0 21 6 52q7 42 17.5 64t25 30.5t38.5 8.5h380
q28 0 41 -10t13 -32q0 -5 -2 -21l-88 -500q-5 -32 -5 -53q0 -53 24.5 -78t72.5 -25q49 0 94.5 14t108.5 48q20 11 36 11q22 0 39 -18t34 -56q21 -47 21 -70z" />
    <glyph glyph-name="Idotaccent" unicode="&#x130;" 
d="M1153 1176q12 -11 12 -40q0 -20 -6 -52q-7 -42 -17.5 -64t-25 -30t-38.5 -8h-236l-137 -777h256q26 0 38 -10.5t12 -39.5q0 -20 -6 -53q-7 -42 -17 -64t-24.5 -30t-38.5 -8h-742q-27 0 -39 11t-12 40q0 25 5 51q11 61 29 82t53 21h236l137 777h-256q-27 0 -39 10.5
t-12 39.5q0 21 6 52q7 42 17.5 64t25 30.5t38.5 8.5h742q27 0 39 -11zM885 1655q36 -21 56.5 -57t20.5 -79q0 -52 -26 -99t-72.5 -75.5t-105.5 -28.5q-45 0 -81.5 21.5t-57 58t-20.5 79.5q0 50 27 96.5t74 75.5t104 29q45 0 81 -21z" />
    <glyph glyph-name="dotlessi" unicode="&#x131;" 
d="M763 914q13 -10 13 -32q0 -5 -2 -21l-88 -500q-5 -32 -5 -53q0 -53 24.5 -78t72.5 -25q49 0 94.5 14t108.5 48q20 11 36 11q22 0 39 -18t34 -56q21 -47 21 -70q0 -36 -41 -60q-94 -53 -170 -74.5t-164 -21.5q-146 0 -226.5 77t-80.5 217q0 45 9 96l61 351h-193
q-27 0 -39 10.5t-12 39.5q0 21 6 52q7 42 17.5 64t25 30.5t38.5 8.5h380q28 0 41 -10z" />
    <glyph glyph-name="IJ" unicode="&#x132;" 
d="M563 1176q12 -11 12 -40q0 -20 -6 -52q-7 -42 -17.5 -64t-25 -30t-38.5 -8h-46l-137 -777h46q26 0 38 -10.5t12 -39.5q0 -20 -6 -53q-7 -42 -17 -64t-24.5 -30t-38.5 -8h-342q-27 0 -39 11t-12 40q0 25 5 51q11 61 29 82t53 21h46l137 777h-46q-27 0 -39 10.5t-12 39.5
q0 21 6 52q7 42 17.5 64t25 30.5t38.5 8.5h342q27 0 39 -11zM1363 1176q12 -11 12 -40q0 -20 -6 -52q-7 -42 -17.5 -64t-25 -30t-38.5 -8h-46l-122 -689q-28 -160 -119.5 -237.5t-256.5 -77.5q-78 0 -152 21t-134 60q-12 9 -12 30q0 5 2 19l57 327q6 34 38 48.5t99 14.5
q58 0 81.5 -11t23.5 -36q0 -4 -2 -16l-37 -213q28 -17 68 -17q42 0 65 26t33 82l118 669h-156q-27 0 -39 10.5t-12 39.5q0 21 6 52q7 42 17.5 64t25 30.5t38.5 8.5h452q27 0 39 -11z" />
    <glyph glyph-name="ij" unicode="&#x133;" 
d="M598.5 1371q27.5 -12 27.5 -38q0 -8 -1 -13l-29 -164q-6 -35 -35 -49t-99 -14q-64 0 -90.5 11.5t-26.5 38.5q0 8 1 13l29 164q6 35 34.5 49t98.5 14q63 0 90.5 -12zM1258.5 1371q27.5 -12 27.5 -38q0 -8 -1 -13l-29 -164q-6 -35 -35 -49t-99 -14q-64 0 -90.5 11.5
t-26.5 38.5q0 8 1 13l29 164q6 35 34.5 49t98.5 14q63 0 90.5 -12zM533 914q13 -10 13 -32q0 -5 -2 -21l-101 -575q-2 -12 -2 -26q0 -55 50 -55q49 0 109 20q17 5 27 5q23 0 38.5 -19.5t22.5 -64.5q4 -24 4 -48q0 -35 -13 -54t-42 -30q-47 -17 -99.5 -26.5t-101.5 -9.5
q-117 0 -183 61.5t-66 174.5q0 38 7 74l75 431h-123q-27 0 -39 10.5t-12 39.5q0 21 6 52q7 42 17.5 64t25 30.5t38.5 8.5h310q28 0 41 -10zM1193 914q13 -10 13 -32q0 -5 -2 -21l-159 -901q-33 -188 -131 -279t-271 -91q-134 0 -256 51q-23 10 -34 23t-11 36t17 71
q17 46 36.5 65t42.5 19q13 0 25 -4q100 -34 178 -34q130 0 159 166l129 736h-183q-27 0 -39 10.5t-12 39.5q0 21 6 52q7 42 17.5 64t25 30.5t38.5 8.5h370q28 0 41 -10z" />
    <glyph glyph-name="Jcircumflex" unicode="&#x134;" 
d="M1283 1176q12 -11 12 -40q0 -20 -6 -52q-7 -42 -17.5 -64t-25 -30t-38.5 -8h-176l-111 -629q-34 -193 -148.5 -284t-322.5 -91q-116 0 -216.5 41.5t-164.5 115.5q-10 11 -10 30q0 6 2 20l55 314q6 34 39.5 48.5t104.5 14.5q60 0 84 -11t24 -36q0 -4 -2 -16l-44 -255
q63 -39 159 -39q82 0 130.5 43.5t64.5 134.5l106 599h-316q-27 0 -39 10.5t-12 39.5q0 21 6 52q7 42 17.5 64t25 30.5t38.5 8.5h742q27 0 39 -11zM1013 1658l251 -261q15 -15 15 -35q0 -16 -13 -37q-20 -32 -48 -32q-12 0 -24 6l-255 134l-303 -134q-12 -5 -20 -5
q-25 0 -44 35q-11 19 -11 34q0 19 19 34l323 261q24 18 58 18q37 0 52 -18z" />
    <glyph glyph-name="jcircumflex" unicode="&#x135;" 
d="M993 914q13 -10 13 -32q0 -5 -2 -21l-159 -901q-33 -188 -131 -279t-271 -91q-84 0 -172.5 26.5t-173.5 73.5q-36 20 -36 55q0 30 27 82q22 41 42.5 58.5t41.5 17.5q14 0 32 -8q76 -37 133.5 -57.5t103.5 -20.5q130 0 159 166l129 736h-383q-27 0 -39 10.5t-12 39.5
q0 21 6 52q7 42 17.5 64t25 30.5t38.5 8.5h570q28 0 41 -10zM923 1388l251 -261q15 -15 15 -35q0 -16 -13 -37q-20 -32 -48 -32q-12 0 -24 6l-255 134l-303 -134q-12 -5 -20 -5q-25 0 -44 35q-11 19 -11 34q0 19 19 34l323 261q24 18 58 18q37 0 52 -18z" />
    <glyph glyph-name="uni0136" unicode="&#x136;" 
d="M1308 1176q12 -11 12 -40q0 -20 -6 -52q-7 -42 -17.5 -64t-25 -30t-38.5 -8h-33l-410 -341q53 -3 87 -29t61 -77q17 -32 29 -67t28 -88q24 -76 33 -98q15 -37 36 -57t52 -20h15q26 0 38 -10.5t12 -39.5q0 -20 -6 -53q-7 -42 -17 -64t-24.5 -30t-38.5 -8h-129
q-62 0 -100 38.5t-61 103.5q-16 46 -33 108q-2 8 -15.5 54t-28.5 78q-19 40 -46 61.5t-61 21.5q-45 0 -85 -34l-71 -60l-29 -166h115q26 0 38 -10.5t12 -39.5q0 -20 -6 -53q-7 -42 -17 -64t-24.5 -30t-38.5 -8h-472q-27 0 -39 11t-12 40q0 25 5 51q11 61 29 82t53 21h107
l137 777h-107q-27 0 -39 10.5t-12 39.5q0 21 6 52q7 42 17.5 64t25 30.5t38.5 8.5h404q27 0 39 -11t12 -40q0 -20 -6 -52q-7 -42 -17.5 -64t-25 -30t-38.5 -8h-47l-55 -310l369 310h-43q-27 0 -39 10.5t-12 39.5q0 21 6 52q7 42 17.5 64t25 30.5t38.5 8.5h389q27 0 39 -11z
M732 -164q0 -12 -9 -25l-209 -313q-29 -43 -99 -43q-29 0 -43.5 9t-14.5 29q0 9 3 21l88 313q4 12 15 19.5t26 7.5h222q21 0 21 -18z" />
    <glyph glyph-name="uni0137" unicode="&#x137;" 
d="M606 1302q13 -10 13 -32q0 -5 -2 -21l-126 -714l289 204h-43q-28 0 -40 10.5t-12 38.5q0 15 5 43q9 55 26.5 74t52.5 19h414q27 0 39.5 -11t12.5 -39q0 -15 -5 -43q-9 -54 -26.5 -73t-52.5 -19h-30l-430 -290q27 5 48 5q51 0 93 -26q35 -21 54.5 -51t40.5 -75
q2 -4 10 -20.5t15.5 -29t15.5 -20.5q24 -27 65 -27h29q26 0 38 -10.5t12 -39.5q0 -20 -6 -53q-7 -42 -17 -64t-24.5 -30t-38.5 -8h-117q-68 0 -116 47q-23 22 -38.5 49t-34.5 67q-22 46 -37 70.5t-38 42.5q-35 28 -87 28q-28 0 -56.5 -8.5t-51.5 -25.5l-7 -5l-35 -202
q-6 -34 -23 -48.5t-51 -14.5h-124q-28 0 -41 10t-13 32q0 5 2 21l184 1044h-97q-27 0 -39 10.5t-12 39.5q0 21 6 52q7 42 17.5 64t25 30.5t38.5 8.5h284q28 0 41 -10zM722 -164q0 -12 -9 -25l-209 -313q-29 -43 -99 -43q-29 0 -43.5 9t-14.5 29q0 9 3 21l88 313
q4 12 15 19.5t26 7.5h222q21 0 21 -18z" />
    <glyph glyph-name="Lacute" unicode="&#x139;" 
d="M915 1176q12 -11 12 -40q0 -20 -6 -52q-7 -42 -17.5 -64t-25 -30t-38.5 -8h-218l-136 -767h351l55 312q6 34 39.5 48.5t104.5 14.5q60 0 84 -11t24 -36q0 -4 -2 -16l-81 -462q-6 -35 -24 -50t-52 -15h-932q-27 0 -39 11t-12 40q0 25 5 51q11 61 29 82t53 21h146l137 777
h-146q-27 0 -39 10.5t-12 39.5q0 21 6 52q7 42 17.5 64t25 30.5t38.5 8.5h614q27 0 39 -11zM796 1670q49 0 93 -99q26 -61 26 -97q0 -38 -29 -46l-480 -125q-6 -2 -16 -2q-18 0 -31.5 11t-20.5 30q-5 13 -5 25q0 14 7.5 27t20.5 21l408 247q14 8 27 8z" />
    <glyph glyph-name="lacute" unicode="&#x13a;" 
d="M916 1770q49 0 93 -99q26 -61 26 -97q0 -38 -29 -46l-480 -125q-6 -2 -16 -2q-18 0 -31.5 11t-20.5 30q-5 13 -5 25q0 14 7.5 27t20.5 21l408 247q14 8 27 8zM802 1302q13 -10 13 -32q0 -5 -2 -21l-157 -888q-5 -32 -5 -53q0 -53 24.5 -78t72.5 -25q49 0 94.5 14
t108.5 48q20 11 36 11q22 0 39 -18t34 -56q21 -47 21 -70q0 -36 -41 -60q-94 -53 -170 -74.5t-164 -21.5q-146 0 -226.5 77t-80.5 217q0 45 9 96l130 739h-233q-27 0 -39 10.5t-12 39.5q0 21 6 52q7 42 17.5 64t25 30.5t38.5 8.5h420q28 0 41 -10z" />
    <glyph glyph-name="uni013B" unicode="&#x13b;" 
d="M915 1176q12 -11 12 -40q0 -20 -6 -52q-7 -42 -17.5 -64t-25 -30t-38.5 -8h-218l-136 -767h351l55 312q6 34 39.5 48.5t104.5 14.5q60 0 84 -11t24 -36q0 -4 -2 -16l-81 -462q-6 -35 -24 -50t-52 -15h-932q-27 0 -39 11t-12 40q0 25 5 51q11 61 29 82t53 21h146l137 777
h-146q-27 0 -39 10.5t-12 39.5q0 21 6 52q7 42 17.5 64t25 30.5t38.5 8.5h614q27 0 39 -11zM702 -164q0 -12 -9 -25l-209 -313q-29 -43 -99 -43q-29 0 -43.5 9t-14.5 29q0 9 3 21l88 313q4 12 15 19.5t26 7.5h222q21 0 21 -18z" />
    <glyph glyph-name="uni013C" unicode="&#x13c;" 
d="M802 1302q13 -10 13 -32q0 -5 -2 -21l-157 -888q-5 -32 -5 -53q0 -53 24.5 -78t72.5 -25q49 0 94.5 14t108.5 48q20 11 36 11q22 0 39 -18t34 -56q21 -47 21 -70q0 -36 -41 -60q-94 -53 -170 -74.5t-164 -21.5q-146 0 -226.5 77t-80.5 217q0 45 9 96l130 739h-233
q-27 0 -39 10.5t-12 39.5q0 21 6 52q7 42 17.5 64t25 30.5t38.5 8.5h420q28 0 41 -10zM782 -164q0 -12 -9 -25l-209 -313q-29 -43 -99 -43q-29 0 -43.5 9t-14.5 29q0 9 3 21l88 313q4 12 15 19.5t26 7.5h222q21 0 21 -18z" />
    <glyph glyph-name="Lcaron" unicode="&#x13d;" 
d="M915 1176q12 -11 12 -40q0 -20 -6 -52q-7 -42 -17.5 -64t-25 -30t-38.5 -8h-218l-136 -767h351l55 312q6 34 39.5 48.5t104.5 14.5q60 0 84 -11t24 -36q0 -4 -2 -16l-81 -462q-6 -35 -24 -50t-52 -15h-932q-27 0 -39 11t-12 40q0 25 5 51q11 61 29 82t53 21h146l137 777
h-146q-27 0 -39 10.5t-12 39.5q0 21 6 52q7 42 17.5 64t25 30.5t38.5 8.5h614q27 0 39 -11zM1376 1165q0 -13 -11 -30l-255 -393q-18 -28 -41 -39t-61 -11q-65 0 -65 42q0 13 6 29l139 391q6 16 19 24.5t30 8.5h214q25 0 25 -22z" />
    <glyph glyph-name="lcaron" unicode="&#x13e;" 
d="M762 1302q13 -10 13 -32q0 -5 -2 -21l-157 -888q-5 -32 -5 -53q0 -53 24.5 -78t72.5 -25q49 0 94.5 14t108.5 48q20 11 36 11q22 0 39 -18t34 -56q21 -47 21 -70q0 -36 -41 -60q-94 -53 -170 -74.5t-164 -21.5q-146 0 -226.5 77t-80.5 217q0 45 9 96l130 739h-233
q-27 0 -39 10.5t-12 39.5q0 21 6 52q7 42 17.5 64t25 30.5t38.5 8.5h420q28 0 41 -10zM1306 1290q0 -13 -11 -30l-255 -393q-18 -28 -41 -39t-61 -11q-65 0 -65 42q0 13 6 29l139 391q6 16 19 24.5t30 8.5h214q25 0 25 -22z" />
    <glyph glyph-name="Ldot" unicode="&#x13f;" 
d="M915 1176q12 -11 12 -40q0 -20 -6 -52q-7 -42 -17.5 -64t-25 -30t-38.5 -8h-218l-136 -767h351l33 182q5 34 38.5 48.5t104.5 14.5q62 0 85 -11t23 -37q0 -10 -1 -15l-59 -332q-6 -35 -24 -50t-52 -15h-932q-27 0 -39 11t-12 40q0 25 5 51q11 61 29 82t53 21h146l137 777
h-146q-27 0 -39 10.5t-12 39.5q0 21 6 52q7 42 17.5 64t25 30.5t38.5 8.5h614q27 0 39 -11zM975 875q36 -21 56.5 -57t20.5 -79q0 -52 -26 -99t-72.5 -75.5t-105.5 -28.5q-45 0 -81.5 21.5t-57 58t-20.5 79.5q0 50 27 96.5t74 75.5t104 29q45 0 81 -21z" />
    <glyph glyph-name="ldot" unicode="&#x140;" 
d="M1106 885q36 -21 56.5 -57t20.5 -79q0 -52 -26 -99t-72.5 -75.5t-105.5 -28.5q-45 0 -81.5 21.5t-57 58t-20.5 79.5q0 50 27 96.5t74 75.5t104 29q45 0 81 -21zM762 1302q13 -10 13 -32q0 -5 -2 -21l-157 -888q-5 -32 -5 -53q0 -53 24.5 -78t72.5 -25q49 0 94.5 14
t108.5 48q20 11 36 11q22 0 39 -18t34 -56q21 -47 21 -70q0 -36 -41 -60q-94 -53 -170 -74.5t-164 -21.5q-146 0 -226.5 77t-80.5 217q0 45 9 96l130 739h-233q-27 0 -39 10.5t-12 39.5q0 21 6 52q7 42 17.5 64t25 30.5t38.5 8.5h420q28 0 41 -10z" />
    <glyph glyph-name="Lslash" unicode="&#x141;" 
d="M915 1176q12 -11 12 -40q0 -20 -6 -52q-7 -42 -17.5 -64t-25 -30t-38.5 -8h-218l-37 -208l189 102q21 12 37 12q17 0 30.5 -15.5t29.5 -52.5q17 -40 17 -65q0 -19 -9.5 -31.5t-30.5 -23.5l-305 -164l-57 -321h351l55 312q6 34 39.5 48.5t104.5 14.5q60 0 84 -11t24 -36
q0 -4 -2 -16l-81 -462q-6 -35 -24 -50t-52 -15h-932q-27 0 -39 11t-12 40q0 25 5 51q11 61 29 82t53 21h146l32 183l-144 -77q-21 -12 -37 -12t-29.5 15.5t-29.5 51.5q-17 40 -17 66q0 19 9.5 31.5t30.5 23.5l259 139l63 356h-146q-27 0 -39 10.5t-12 39.5q0 21 6 52
q7 42 17.5 64t25 30.5t38.5 8.5h614q27 0 39 -11z" />
    <glyph glyph-name="lslash" unicode="&#x142;" 
d="M802 1302q13 -10 13 -32q0 -5 -2 -21l-68 -381l185 99q21 12 37 12q17 0 30.5 -15.5t29.5 -52.5q17 -40 17 -65q0 -19 -9.5 -31.5t-30.5 -23.5l-301 -161l-47 -269q-5 -32 -5 -53q0 -53 24.5 -78t72.5 -25q49 0 94.5 14t108.5 48q20 11 36 11q22 0 39 -18t34 -56
q21 -47 21 -70q0 -36 -41 -60q-94 -53 -170 -74.5t-164 -21.5q-146 0 -226.5 77t-80.5 217q0 45 9 96l20 114l-149 -80q-21 -12 -37 -12t-29.5 15.5t-29.5 51.5q-17 40 -17 66q0 19 9.5 31.5t30.5 23.5l264 142l68 387h-233q-27 0 -39 10.5t-12 39.5q0 21 6 52q7 42 17.5 64
t25 30.5t38.5 8.5h420q28 0 41 -10z" />
    <glyph glyph-name="Nacute" unicode="&#x143;" 
d="M1313 1176q12 -11 12 -40q0 -20 -6 -52q-7 -42 -17.5 -64t-25 -30t-38.5 -8h-57l-166 -938q-6 -33 -33.5 -49.5t-87.5 -16.5q-46 0 -67 12.5t-32 40.5l-315 765h-4l-104 -591h111q26 0 38 -10.5t12 -39.5q0 -20 -6 -53q-7 -42 -17 -64t-24.5 -30t-38.5 -8h-404
q-27 0 -39 11t-12 40q0 25 5 51q11 61 29 82t53 21h67l137 777h-67q-27 0 -39 10.5t-12 39.5q0 21 6 52q7 42 17.5 64t25 30.5t38.5 8.5h264q40 0 51 -27l290 -707h4l94 529h-92q-27 0 -39 10.5t-12 39.5q0 21 6 52q7 42 17.5 64t25 30.5t38.5 8.5h375q27 0 39 -11z
M1006 1670q49 0 93 -99q26 -61 26 -97q0 -38 -29 -46l-480 -125q-6 -2 -16 -2q-18 0 -31.5 11t-20.5 30q-5 13 -5 25q0 14 7.5 27t20.5 21l408 247q14 8 27 8z" />
    <glyph glyph-name="nacute" unicode="&#x144;" 
d="M956 1400q49 0 93 -99q26 -61 26 -97q0 -38 -29 -46l-480 -125q-6 -2 -16 -2q-18 0 -31.5 11t-20.5 30q-5 13 -5 25q0 14 7.5 27t20.5 21l408 247q14 8 27 8zM970 912q58 -34 89.5 -95.5t31.5 -141.5q0 -31 -7 -75l-69 -395h77q26 0 38 -10.5t12 -39.5q0 -20 -6 -53
q-7 -42 -17 -64t-24.5 -30t-38.5 -8h-264q-28 0 -41 10t-13 32q0 5 2 21l87 498q6 33 6 60q0 48 -22.5 73t-72.5 25q-58 0 -120 -55.5t-109.5 -144t-63.5 -181.5l-47 -275q-6 -34 -23 -48.5t-51 -14.5h-124q-28 0 -41 10t-13 32q0 5 2 21l115 656h-97q-27 0 -39 10.5
t-12 39.5q0 21 6 52q7 42 17.5 64t25 30.5t38.5 8.5h244q28 0 41 -10t13 -32q0 -5 -2 -21l-25 -145q86 119 175 174.5t185 55.5q79 0 137 -34z" />
    <glyph glyph-name="uni0145" unicode="&#x145;" 
d="M1313 1176q12 -11 12 -40q0 -20 -6 -52q-7 -42 -17.5 -64t-25 -30t-38.5 -8h-57l-166 -938q-6 -33 -33.5 -49.5t-87.5 -16.5q-46 0 -67 12.5t-32 40.5l-315 765h-4l-104 -591h111q26 0 38 -10.5t12 -39.5q0 -20 -6 -53q-7 -42 -17 -64t-24.5 -30t-38.5 -8h-404
q-27 0 -39 11t-12 40q0 25 5 51q11 61 29 82t53 21h67l137 777h-67q-27 0 -39 10.5t-12 39.5q0 21 6 52q7 42 17.5 64t25 30.5t38.5 8.5h264q40 0 51 -27l290 -707h4l94 529h-92q-27 0 -39 10.5t-12 39.5q0 21 6 52q7 42 17.5 64t25 30.5t38.5 8.5h375q27 0 39 -11z
M702 -164q0 -12 -9 -25l-209 -313q-29 -43 -99 -43q-29 0 -43.5 9t-14.5 29q0 9 3 21l88 313q4 12 15 19.5t26 7.5h222q21 0 21 -18z" />
    <glyph glyph-name="uni0146" unicode="&#x146;" 
d="M970 912q58 -34 89.5 -95.5t31.5 -141.5q0 -31 -7 -75l-69 -395h77q26 0 38 -10.5t12 -39.5q0 -20 -6 -53q-7 -42 -17 -64t-24.5 -30t-38.5 -8h-264q-28 0 -41 10t-13 32q0 5 2 21l87 498q6 33 6 60q0 48 -22.5 73t-72.5 25q-58 0 -120 -55.5t-109.5 -144t-63.5 -181.5
l-47 -275q-6 -34 -23 -48.5t-51 -14.5h-124q-28 0 -41 10t-13 32q0 5 2 21l115 656h-97q-27 0 -39 10.5t-12 39.5q0 21 6 52q7 42 17.5 64t25 30.5t38.5 8.5h244q28 0 41 -10t13 -32q0 -5 -2 -21l-25 -145q86 119 175 174.5t185 55.5q79 0 137 -34zM732 -164q0 -12 -9 -25
l-209 -313q-29 -43 -99 -43q-29 0 -43.5 9t-14.5 29q0 9 3 21l88 313q4 12 15 19.5t26 7.5h222q21 0 21 -18z" />
    <glyph glyph-name="Ncaron" unicode="&#x147;" 
d="M1313 1176q12 -11 12 -40q0 -20 -6 -52q-7 -42 -17.5 -64t-25 -30t-38.5 -8h-57l-166 -938q-6 -33 -33.5 -49.5t-87.5 -16.5q-46 0 -67 12.5t-32 40.5l-315 765h-4l-104 -591h111q26 0 38 -10.5t12 -39.5q0 -20 -6 -53q-7 -42 -17 -64t-24.5 -30t-38.5 -8h-404
q-27 0 -39 11t-12 40q0 25 5 51q11 61 29 82t53 21h67l137 777h-67q-27 0 -39 10.5t-12 39.5q0 21 6 52q7 42 17.5 64t25 30.5t38.5 8.5h264q40 0 51 -27l290 -707h4l94 529h-92q-27 0 -39 10.5t-12 39.5q0 21 6 52q7 42 17.5 64t25 30.5t38.5 8.5h375q27 0 39 -11z
M1086 1659q25 0 44 -35q10 -20 10 -34q0 -19 -18 -34l-323 -261q-24 -18 -58 -18t-52 18l-251 261q-15 15 -15 35q0 16 13 37q20 32 48 32q12 0 24 -6l255 -134l303 134q12 5 20 5z" />
    <glyph glyph-name="ncaron" unicode="&#x148;" 
d="M1056 1399q25 0 44 -35q10 -20 10 -34q0 -19 -18 -34l-323 -261q-24 -18 -58 -18t-52 18l-251 261q-15 15 -15 35q0 16 13 37q20 32 48 32q12 0 24 -6l255 -134l303 134q12 5 20 5zM970 912q58 -34 89.5 -95.5t31.5 -141.5q0 -31 -7 -75l-69 -395h77q26 0 38 -10.5
t12 -39.5q0 -20 -6 -53q-7 -42 -17 -64t-24.5 -30t-38.5 -8h-264q-28 0 -41 10t-13 32q0 5 2 21l87 498q6 33 6 60q0 48 -22.5 73t-72.5 25q-58 0 -120 -55.5t-109.5 -144t-63.5 -181.5l-47 -275q-6 -34 -23 -48.5t-51 -14.5h-124q-28 0 -41 10t-13 32q0 5 2 21l115 656h-97
q-27 0 -39 10.5t-12 39.5q0 21 6 52q7 42 17.5 64t25 30.5t38.5 8.5h244q28 0 41 -10t13 -32q0 -5 -2 -21l-25 -145q86 119 175 174.5t185 55.5q79 0 137 -34z" />
    <glyph glyph-name="Eng" unicode="&#x14a;" 
d="M1313 1176q12 -11 12 -40q0 -20 -6 -52q-7 -42 -17.5 -64t-25 -30t-38.5 -8h-57l-184 -1037q-32 -179 -134 -267t-281 -88q-49 0 -101.5 10.5t-100.5 29.5q-39 16 -39 57q0 30 19 78q18 49 37.5 70.5t42.5 21.5q7 0 21 -4q35 -12 72 -19t64 -7q64 0 102.5 32t50.5 102
l22 126l-292 709h-4l-104 -591h111q26 0 38 -10.5t12 -39.5q0 -20 -6 -53q-7 -42 -17 -64t-24.5 -30t-38.5 -8h-404q-27 0 -39 11t-12 40q0 25 5 51q11 61 29 82t53 21h67l137 777h-67q-27 0 -39 10.5t-12 39.5q0 21 6 52q7 42 17.5 64t25 30.5t38.5 8.5h264q40 0 51 -27
l290 -707h4l94 529h-92q-27 0 -39 10.5t-12 39.5q0 21 6 52q7 42 17.5 64t25 30.5t38.5 8.5h375q27 0 39 -11z" />
    <glyph glyph-name="eng" unicode="&#x14b;" 
d="M986 912q58 -34 89.5 -95.5t31.5 -141.5q0 -31 -7 -75l-115 -655q-32 -179 -134 -267t-281 -88q-49 0 -101.5 10.5t-100.5 29.5q-39 16 -39 57q0 30 19 78q18 49 37.5 70.5t42.5 21.5q7 0 21 -4q35 -12 72 -19t64 -7q64 0 102.5 32t50.5 102l105 600q6 33 6 60
q0 48 -22.5 73t-72.5 25q-58 0 -120 -55.5t-109.5 -144t-63.5 -181.5l-47 -275q-6 -34 -23 -48.5t-51 -14.5h-124q-28 0 -41 10t-13 32q0 5 2 21l115 656h-97q-27 0 -39 10.5t-12 39.5q0 21 6 52q7 42 17.5 64t25 30.5t38.5 8.5h244q28 0 41 -10t13 -32q0 -5 -2 -21
l-25 -145q86 119 175 174.5t185 55.5q79 0 137 -34z" />
    <glyph glyph-name="Omacron" unicode="&#x14c;" 
d="M986 1148.5q107 -60.5 165 -172t58 -260.5q0 -123 -38 -254t-109 -231q-86 -123 -214.5 -188t-287.5 -65q-142 0 -249 60.5t-165 172t-58 260.5q0 123 38 254t109 231q86 123 214.5 188t287.5 65q142 0 249 -60.5zM462 849q-52 -73 -80.5 -178.5t-28.5 -203.5
q0 -127 57 -194.5t170 -67.5q159 0 255 133q52 73 80.5 178.5t28.5 203.5q0 127 -57 194.5t-170 67.5q-159 0 -255 -133zM1118 1534q12 -11 12 -40q0 -20 -6 -52q-7 -42 -17.5 -64t-25 -30t-38.5 -8h-562q-27 0 -39 10.5t-12 39.5q0 21 6 52q7 42 17.5 64t25 30.5t38.5 8.5
h562q27 0 39 -11z" />
    <glyph glyph-name="omacron" unicode="&#x14d;" 
d="M932 893q99 -53 151.5 -146.5t52.5 -210.5q0 -134 -64 -262.5t-196.5 -212t-325.5 -83.5q-134 0 -233 53t-151.5 146t-52.5 211q0 138 66 266t198.5 210t322.5 82q133 0 232 -53zM516 674.5q-66 -44.5 -101 -117.5t-35 -156q0 -91 53.5 -143.5t146.5 -52.5
q88 0 153.5 44.5t100.5 117t35 155.5q0 91 -53 144t-146 53q-88 0 -154 -44.5zM1068 1264q12 -11 12 -40q0 -20 -6 -52q-7 -42 -17.5 -64t-25 -30t-38.5 -8h-562q-27 0 -39 10.5t-12 39.5q0 21 6 52q7 42 17.5 64t25 30.5t38.5 8.5h562q27 0 39 -11z" />
    <glyph glyph-name="Obreve" unicode="&#x14e;" 
d="M986 1148.5q107 -60.5 165 -172t58 -260.5q0 -123 -38 -254t-109 -231q-86 -123 -214.5 -188t-287.5 -65q-142 0 -249 60.5t-165 172t-58 260.5q0 123 38 254t109 231q86 123 214.5 188t287.5 65q142 0 249 -60.5zM462 849q-52 -73 -80.5 -178.5t-28.5 -203.5
q0 -127 57 -194.5t170 -67.5q159 0 255 133q52 73 80.5 178.5t28.5 203.5q0 127 -57 194.5t-170 67.5q-159 0 -255 -133zM1158.5 1619.5q14.5 -15.5 14.5 -33.5q0 -6 -4 -18q-49 -121 -152 -189t-260 -68q-160 0 -250.5 67t-111.5 190q-1 3 -1 8q0 19 14.5 37t40.5 29
q29 13 54 13q30 0 40 -20q30 -61 83.5 -90.5t146.5 -29.5q91 0 147.5 29.5t104.5 90.5q17 20 47 20q22 0 49 -11q23 -9 37.5 -24.5z" />
    <glyph glyph-name="obreve" unicode="&#x14f;" 
d="M1128.5 1349.5q14.5 -15.5 14.5 -33.5q0 -6 -4 -18q-49 -121 -152 -189t-260 -68q-160 0 -250.5 67t-111.5 190q-1 3 -1 8q0 19 14.5 37t40.5 29q29 13 54 13q30 0 40 -20q30 -61 83.5 -90.5t146.5 -29.5q91 0 147.5 29.5t104.5 90.5q17 20 47 20q22 0 49 -11
q23 -9 37.5 -24.5zM932 893q99 -53 151.5 -146.5t52.5 -210.5q0 -134 -64 -262.5t-196.5 -212t-325.5 -83.5q-134 0 -233 53t-151.5 146t-52.5 211q0 138 66 266t198.5 210t322.5 82q133 0 232 -53zM516 674.5q-66 -44.5 -101 -117.5t-35 -156q0 -91 53.5 -143.5
t146.5 -52.5q88 0 153.5 44.5t100.5 117t35 155.5q0 91 -53 144t-146 53q-88 0 -154 -44.5z" />
    <glyph glyph-name="Ohungarumlaut" unicode="&#x150;" 
d="M986 1148.5q107 -60.5 165 -172t58 -260.5q0 -123 -38 -254t-109 -231q-86 -123 -214.5 -188t-287.5 -65q-142 0 -249 60.5t-165 172t-58 260.5q0 123 38 254t109 231q86 123 214.5 188t287.5 65q142 0 249 -60.5zM462 849q-52 -73 -80.5 -178.5t-28.5 -203.5
q0 -127 57 -194.5t170 -67.5q159 0 255 133q52 73 80.5 178.5t28.5 203.5q0 127 -57 194.5t-170 67.5q-159 0 -255 -133zM866.5 1602q17.5 -17 17.5 -33q0 -15 -15 -25l-298 -208q-16 -12 -40 -12q-25 0 -48 13q-24 14 -24 34q0 14 9 24l198 243q17 22 55 22q39 0 91 -24
q37 -17 54.5 -34zM1296.5 1602q17.5 -17 17.5 -33q0 -15 -15 -25l-298 -208q-16 -12 -40 -12q-25 0 -48 13q-24 14 -24 34q0 14 9 24l198 243q17 22 55 22q39 0 91 -24q37 -17 54.5 -34z" />
    <glyph glyph-name="ohungarumlaut" unicode="&#x151;" 
d="M932 893q99 -53 151.5 -146.5t52.5 -210.5q0 -134 -64 -262.5t-196.5 -212t-325.5 -83.5q-134 0 -233 53t-151.5 146t-52.5 211q0 138 66 266t198.5 210t322.5 82q133 0 232 -53zM516 674.5q-66 -44.5 -101 -117.5t-35 -156q0 -91 53.5 -143.5t146.5 -52.5
q88 0 153.5 44.5t100.5 117t35 155.5q0 91 -53 144t-146 53q-88 0 -154 -44.5zM826.5 1332q17.5 -17 17.5 -33q0 -15 -15 -25l-298 -208q-16 -12 -40 -12q-25 0 -48 13q-24 14 -24 34q0 14 9 24l198 243q17 22 55 22q39 0 91 -24q37 -17 54.5 -34zM1256.5 1332
q17.5 -17 17.5 -33q0 -15 -15 -25l-298 -208q-16 -12 -40 -12q-25 0 -48 13q-24 14 -24 34q0 14 9 24l198 243q17 22 55 22q39 0 91 -24q37 -17 54.5 -34z" />
    <glyph glyph-name="OE" unicode="&#x152;" 
d="M1266 1176.5q13 -10.5 13 -33.5q0 -5 -2 -21l-48 -272q-6 -34 -34.5 -48.5t-88.5 -14.5q-50 0 -69.5 10t-19.5 34q0 5 2 19l22 122h-170l-43 -243h114q26 0 38 -12t12 -42q0 -21 -6 -54q-11 -62 -29 -84.5t-53 -22.5h-114l-53 -299h180l31 172q6 34 35 48.5t92 14.5
q54 0 74.5 -10t20.5 -35q0 -4 -2 -18l-57 -322q-6 -35 -24 -50t-52 -15h-501q-140 0 -240.5 54.5t-153.5 158t-53 246.5q0 127 40.5 267.5t116.5 240.5q83 109 204 164.5t275 55.5h501q29 0 42 -10.5zM526 934q-54 -33 -96 -94q-50 -71 -77.5 -173.5t-27.5 -197.5
q0 -118 48.5 -182.5t133.5 -71.5l134 757q-61 -5 -115 -38z" />
    <glyph glyph-name="oe" unicode="&#x153;" 
d="M1149 858.5q68 -87.5 68 -244.5q0 -76 -18 -182q-6 -34 -23 -48t-51 -14h-406q-2 -18 -2 -38q0 -62 28 -94.5t79 -32.5q52 0 100.5 12t115.5 38q19 7 31 7q20 0 34 -19t27 -64q11 -41 11 -63q0 -26 -12 -41t-38 -26q-84 -34 -157 -52.5t-147 -18.5q-144 0 -209 106
q-101 -106 -250 -106q-152 0 -227 96t-75 259q0 81 18 174t53.5 178.5t85.5 141.5q105 119 275 119q75 0 130.5 -29t86.5 -81q119 110 257 110q147 0 215 -87.5zM334 650q-30 -50 -51 -148.5t-21 -171.5q0 -64 21.5 -94.5t66.5 -30.5q62 0 100 59q32 49 55 152.5t23 177.5
q0 64 -21.5 94.5t-66.5 30.5q-65 0 -106 -69zM815.5 681.5q-38.5 -37.5 -62.5 -116.5h244q3 21 3 40q0 55 -21.5 84.5t-64.5 29.5q-60 0 -98.5 -37.5z" />
    <glyph glyph-name="Racute" unicode="&#x154;" 
d="M1065 1108.5q101 -78.5 101 -220.5q0 -283 -313 -355q46 -19 75 -69q27 -47 58 -133q22 -56 23 -60q14 -33 31 -49.5t42 -16.5h19q27 0 39 -11t12 -40q0 -20 -6 -52q-7 -42 -17.5 -64t-25 -30t-38.5 -8h-87q-78 0 -120.5 32t-72.5 107q-13 31 -31 97q-15 51 -25.5 82.5
t-27.5 61.5q-23 42 -58 61.5t-88 19.5h-64l-45 -256h97q26 0 38 -10.5t12 -39.5q0 -20 -6 -53q-7 -42 -17 -64t-24.5 -30t-38.5 -8h-454q-27 0 -39 11t-12 40q0 25 5 51q11 61 29 82t53 21h107l137 777h-107q-27 0 -39 10.5t-12 39.5q0 21 6 52q7 42 17.5 64t25 30.5
t38.5 8.5h517q185 0 286 -78.5zM529 676h149q128 0 183 58q21 23 33.5 56.5t12.5 66.5q0 58 -43.5 86.5t-133.5 28.5h-149zM986 1670q49 0 93 -99q26 -61 26 -97q0 -38 -29 -46l-480 -125q-6 -2 -16 -2q-18 0 -31.5 11t-20.5 30q-5 13 -5 25q0 14 7.5 27t20.5 21l408 247
q14 8 27 8z" />
    <glyph glyph-name="racute" unicode="&#x155;" 
d="M1006 1400q49 0 93 -99q26 -61 26 -97q0 -38 -29 -46l-480 -125q-6 -2 -16 -2q-18 0 -31.5 11t-20.5 30q-5 13 -5 25q0 14 7.5 27t20.5 21l408 247q14 8 27 8zM1163 890q37 -30 37 -73q0 -38 -28 -88q-49 -90 -98 -90q-15 0 -29 8q-49 28 -106 28q-79 0 -158.5 -50.5
t-137.5 -139t-76 -195.5l-14 -85h287q26 0 38 -10.5t12 -39.5q0 -20 -6 -53q-7 -42 -17 -64t-24.5 -30t-38.5 -8h-684q-27 0 -39 11t-12 40q0 25 5 51q11 61 29 82t53 21h147l90 514h-117q-27 0 -39 10.5t-12 39.5q0 21 6 52q7 42 17.5 64t25 30.5t38.5 8.5h274q28 0 41 -10
t13 -32q0 -5 -2 -21l-36 -207q97 142 203.5 217t204.5 75q83 0 153 -56z" />
    <glyph glyph-name="uni0156" unicode="&#x156;" 
d="M1065 1108.5q101 -78.5 101 -220.5q0 -283 -313 -355q46 -19 75 -69q27 -47 58 -133q22 -56 23 -60q14 -33 31 -49.5t42 -16.5h19q27 0 39 -11t12 -40q0 -20 -6 -52q-7 -42 -17.5 -64t-25 -30t-38.5 -8h-87q-78 0 -120.5 32t-72.5 107q-13 31 -31 97q-15 51 -25.5 82.5
t-27.5 61.5q-23 42 -58 61.5t-88 19.5h-64l-45 -256h97q26 0 38 -10.5t12 -39.5q0 -20 -6 -53q-7 -42 -17 -64t-24.5 -30t-38.5 -8h-454q-27 0 -39 11t-12 40q0 25 5 51q11 61 29 82t53 21h107l137 777h-107q-27 0 -39 10.5t-12 39.5q0 21 6 52q7 42 17.5 64t25 30.5
t38.5 8.5h517q185 0 286 -78.5zM529 676h149q128 0 183 58q21 23 33.5 56.5t12.5 66.5q0 58 -43.5 86.5t-133.5 28.5h-149zM742 -164q0 -12 -9 -25l-209 -313q-29 -43 -99 -43q-29 0 -43.5 9t-14.5 29q0 9 3 21l88 313q4 12 15 19.5t26 7.5h222q21 0 21 -18z" />
    <glyph glyph-name="uni0157" unicode="&#x157;" 
d="M1163 890q37 -30 37 -73q0 -38 -28 -88q-49 -90 -98 -90q-15 0 -29 8q-49 28 -106 28q-79 0 -158.5 -50.5t-137.5 -139t-76 -195.5l-14 -85h287q26 0 38 -10.5t12 -39.5q0 -20 -6 -53q-7 -42 -17 -64t-24.5 -30t-38.5 -8h-684q-27 0 -39 11t-12 40q0 25 5 51q11 61 29 82
t53 21h147l90 514h-117q-27 0 -39 10.5t-12 39.5q0 21 6 52q7 42 17.5 64t25 30.5t38.5 8.5h274q28 0 41 -10t13 -32q0 -5 -2 -21l-36 -207q97 142 203.5 217t204.5 75q83 0 153 -56zM602 -164q0 -12 -9 -25l-209 -313q-29 -43 -99 -43q-29 0 -43.5 9t-14.5 29q0 9 3 21
l88 313q4 12 15 19.5t26 7.5h222q21 0 21 -18z" />
    <glyph glyph-name="Rcaron" unicode="&#x158;" 
d="M1065 1108.5q101 -78.5 101 -220.5q0 -283 -313 -355q46 -19 75 -69q27 -47 58 -133q22 -56 23 -60q14 -33 31 -49.5t42 -16.5h19q27 0 39 -11t12 -40q0 -20 -6 -52q-7 -42 -17.5 -64t-25 -30t-38.5 -8h-87q-78 0 -120.5 32t-72.5 107q-13 31 -31 97q-15 51 -25.5 82.5
t-27.5 61.5q-23 42 -58 61.5t-88 19.5h-64l-45 -256h97q26 0 38 -10.5t12 -39.5q0 -20 -6 -53q-7 -42 -17 -64t-24.5 -30t-38.5 -8h-454q-27 0 -39 11t-12 40q0 25 5 51q11 61 29 82t53 21h107l137 777h-107q-27 0 -39 10.5t-12 39.5q0 21 6 52q7 42 17.5 64t25 30.5
t38.5 8.5h517q185 0 286 -78.5zM529 676h149q128 0 183 58q21 23 33.5 56.5t12.5 66.5q0 58 -43.5 86.5t-133.5 28.5h-149zM1066 1659q25 0 44 -35q10 -20 10 -34q0 -19 -18 -34l-323 -261q-24 -18 -58 -18t-52 18l-251 261q-15 15 -15 35q0 16 13 37q20 32 48 32
q12 0 24 -6l255 -134l303 134q12 5 20 5z" />
    <glyph glyph-name="rcaron" unicode="&#x159;" 
d="M1086 1399q25 0 44 -35q10 -20 10 -34q0 -19 -18 -34l-323 -261q-24 -18 -58 -18t-52 18l-251 261q-15 15 -15 35q0 16 13 37q20 32 48 32q12 0 24 -6l255 -134l303 134q12 5 20 5zM1163 890q37 -30 37 -73q0 -38 -28 -88q-49 -90 -98 -90q-15 0 -29 8q-49 28 -106 28
q-79 0 -158.5 -50.5t-137.5 -139t-76 -195.5l-14 -85h287q26 0 38 -10.5t12 -39.5q0 -20 -6 -53q-7 -42 -17 -64t-24.5 -30t-38.5 -8h-684q-27 0 -39 11t-12 40q0 25 5 51q11 61 29 82t53 21h147l90 514h-117q-27 0 -39 10.5t-12 39.5q0 21 6 52q7 42 17.5 64t25 30.5
t38.5 8.5h274q28 0 41 -10t13 -32q0 -5 -2 -21l-36 -207q97 142 203.5 217t204.5 75q83 0 153 -56z" />
    <glyph glyph-name="Sacute" unicode="&#x15a;" 
d="M1141.5 1197.5q25.5 -11.5 25.5 -38.5q0 -8 -1 -13l-49 -274q-6 -34 -30 -48.5t-73 -14.5q-33 0 -50.5 8t-25.5 24q-34 74 -101 114.5t-164 40.5q-58 0 -98.5 -23t-61 -57t-20.5 -67q0 -26 17 -43t51 -31q23 -9 59 -18t73 -17q94 -20 160.5 -41.5t118.5 -59.5
q109 -80 109 -226q0 -117 -48 -215.5t-154 -159t-271 -60.5q-82 0 -154 28t-121 78l-7 -43q-5 -34 -32.5 -48.5t-90.5 -14.5q-57 0 -82.5 11.5t-25.5 38.5q0 8 1 13l59 334q6 34 30 48.5t73 14.5q35 0 54 -9t26 -31q36 -103 101.5 -155t165.5 -52q74 0 120 24.5t66 60.5
t20 75q0 36 -21 60.5t-61 42.5q-28 13 -62 22.5t-90 23.5q-96 24 -157.5 45.5t-107.5 58.5q-87 69 -87 189q0 114 55.5 209t157 151t233.5 56q80 0 147.5 -28t109.5 -77l8 42q7 34 33.5 48.5t89.5 14.5q57 0 82.5 -11.5zM986 1670q49 0 93 -99q26 -61 26 -97q0 -38 -29 -46
l-480 -125q-6 -2 -16 -2q-18 0 -31.5 11t-20.5 30q-5 13 -5 25q0 14 7.5 27t20.5 21l408 247q14 8 27 8z" />
    <glyph glyph-name="sacute" unicode="&#x15b;" 
d="M936 1400q49 0 93 -99q26 -61 26 -97q0 -38 -29 -46l-480 -125q-6 -2 -16 -2q-18 0 -31.5 11t-20.5 30q-5 13 -5 25q0 14 7.5 27t20.5 21l408 247q14 8 27 8zM1084.5 934.5q25.5 -11.5 25.5 -38.5q0 -8 -1 -13l-37 -211q-6 -34 -30 -48.5t-73 -14.5q-54 0 -69 21
q-48 63 -119.5 89.5t-171.5 26.5q-69 0 -105 -25t-36 -61q0 -23 17.5 -36t53.5 -21q22 -5 103 -17q102 -14 173 -29.5t127 -47.5q52 -30 80.5 -76.5t28.5 -117.5q0 -88 -44.5 -164t-143.5 -124.5t-255 -48.5q-75 0 -136 19t-119 57l-2 -13q-5 -33 -37 -48t-96 -15
q-57 0 -82.5 11.5t-25.5 38.5q0 8 1 13l39 223q6 33 32 48t75 15q61 0 78 -28q40 -63 112.5 -92t165.5 -29q92 0 134 26t42 65q0 45 -73 62q-25 6 -104 18q-104 16 -172 32.5t-123 49.5q-52 31 -80.5 79t-28.5 120q0 84 44.5 156t136 116t223.5 44q155 0 264 -78l3 15
q7 34 33.5 48.5t89.5 14.5q57 0 82.5 -11.5z" />
    <glyph glyph-name="Scircumflex" unicode="&#x15c;" 
d="M1141.5 1197.5q25.5 -11.5 25.5 -38.5q0 -8 -1 -13l-49 -274q-6 -34 -30 -48.5t-73 -14.5q-33 0 -50.5 8t-25.5 24q-34 74 -101 114.5t-164 40.5q-58 0 -98.5 -23t-61 -57t-20.5 -67q0 -26 17 -43t51 -31q23 -9 59 -18t73 -17q94 -20 160.5 -41.5t118.5 -59.5
q109 -80 109 -226q0 -117 -48 -215.5t-154 -159t-271 -60.5q-82 0 -154 28t-121 78l-7 -43q-5 -34 -32.5 -48.5t-90.5 -14.5q-57 0 -82.5 11.5t-25.5 38.5q0 8 1 13l59 334q6 34 30 48.5t73 14.5q35 0 54 -9t26 -31q36 -103 101.5 -155t165.5 -52q74 0 120 24.5t66 60.5
t20 75q0 36 -21 60.5t-61 42.5q-28 13 -62 22.5t-90 23.5q-96 24 -157.5 45.5t-107.5 58.5q-87 69 -87 189q0 114 55.5 209t157 151t233.5 56q80 0 147.5 -28t109.5 -77l8 42q7 34 33.5 48.5t89.5 14.5q57 0 82.5 -11.5zM853 1658l251 -261q15 -15 15 -35q0 -16 -13 -37
q-20 -32 -48 -32q-12 0 -24 6l-255 134l-303 -134q-12 -5 -20 -5q-25 0 -44 35q-11 19 -11 34q0 19 19 34l323 261q24 18 58 18q37 0 52 -18z" />
    <glyph glyph-name="scircumflex" unicode="&#x15d;" 
d="M803 1388l251 -261q15 -15 15 -35q0 -16 -13 -37q-20 -32 -48 -32q-12 0 -24 6l-255 134l-303 -134q-12 -5 -20 -5q-25 0 -44 35q-11 19 -11 34q0 19 19 34l323 261q24 18 58 18q37 0 52 -18zM1084.5 934.5q25.5 -11.5 25.5 -38.5q0 -8 -1 -13l-37 -211q-6 -34 -30 -48.5
t-73 -14.5q-54 0 -69 21q-48 63 -119.5 89.5t-171.5 26.5q-69 0 -105 -25t-36 -61q0 -23 17.5 -36t53.5 -21q22 -5 103 -17q102 -14 173 -29.5t127 -47.5q52 -30 80.5 -76.5t28.5 -117.5q0 -88 -44.5 -164t-143.5 -124.5t-255 -48.5q-75 0 -136 19t-119 57l-2 -13
q-5 -33 -37 -48t-96 -15q-57 0 -82.5 11.5t-25.5 38.5q0 8 1 13l39 223q6 33 32 48t75 15q61 0 78 -28q40 -63 112.5 -92t165.5 -29q92 0 134 26t42 65q0 45 -73 62q-25 6 -104 18q-104 16 -172 32.5t-123 49.5q-52 31 -80.5 79t-28.5 120q0 84 44.5 156t136 116t223.5 44
q155 0 264 -78l3 15q7 34 33.5 48.5t89.5 14.5q57 0 82.5 -11.5z" />
    <glyph glyph-name="Scedilla" unicode="&#x15e;" 
d="M1141.5 1197.5q25.5 -11.5 25.5 -38.5q0 -8 -1 -13l-49 -274q-6 -34 -30 -48.5t-73 -14.5q-33 0 -50.5 8t-25.5 24q-34 74 -101 114.5t-164 40.5q-58 0 -98.5 -23t-61 -57t-20.5 -67q0 -26 17 -43t51 -31q23 -9 59 -18t73 -17q94 -20 160.5 -41.5t118.5 -59.5
q109 -80 109 -226q0 -111 -43 -205t-137 -156t-241 -72l-13 -73q96 3 145.5 -40t49.5 -117q0 -36 -12 -74t-36 -65q-71 -83 -257 -83q-149 0 -248 41q-18 7 -18 32q0 22 14 53q12 27 27 43.5t31 16.5q7 0 11 -2q42 -17 76.5 -25.5t80.5 -8.5q52 0 74 18t22 46q0 42 -65 42
q-21 0 -53 -5q-13 -3 -23 4.5t-10 24.5q0 8 1 12l30 175q-92 26 -154 89l-7 -43q-5 -34 -32.5 -48.5t-90.5 -14.5q-57 0 -82.5 11.5t-25.5 38.5q0 8 1 13l59 334q6 34 30 48.5t73 14.5q35 0 54 -9t26 -31q36 -103 101.5 -155t165.5 -52q74 0 120 24.5t66 60.5t20 75
q0 36 -21 60.5t-61 42.5q-28 13 -62 22.5t-90 23.5q-96 24 -157.5 45.5t-107.5 58.5q-87 69 -87 189q0 114 55.5 209t157 151t233.5 56q80 0 147.5 -28t109.5 -77l8 42q7 34 33.5 48.5t89.5 14.5q57 0 82.5 -11.5z" />
    <glyph glyph-name="scedilla" unicode="&#x15f;" 
d="M1084.5 934.5q25.5 -11.5 25.5 -38.5q0 -8 -1 -13l-37 -211q-6 -34 -30 -48.5t-73 -14.5q-54 0 -69 21q-48 63 -119.5 89.5t-171.5 26.5q-69 0 -105 -25t-36 -61q0 -23 17.5 -36t53.5 -21q22 -5 103 -17q102 -14 173 -29.5t127 -47.5q52 -30 80.5 -76.5t28.5 -117.5
q0 -82 -39 -155t-127 -122.5t-225 -57.5l-13 -73q96 3 145.5 -40t49.5 -117q0 -36 -12 -74t-36 -65q-71 -83 -257 -83q-149 0 -248 41q-18 7 -18 32q0 22 14 53q12 27 27 43.5t31 16.5q7 0 11 -2q42 -17 76.5 -25.5t80.5 -8.5q52 0 74 18t22 46q0 42 -65 42q-21 0 -53 -5
q-13 -3 -23 4.5t-10 24.5q0 8 1 12l30 173q-67 16 -134 61l-2 -13q-5 -33 -37 -48t-96 -15q-57 0 -82.5 11.5t-25.5 38.5q0 8 1 13l39 223q6 33 32 48t75 15q61 0 78 -28q40 -63 112.5 -92t165.5 -29q92 0 134 26t42 65q0 45 -73 62q-25 6 -104 18q-104 16 -172 32.5
t-123 49.5q-52 31 -80.5 79t-28.5 120q0 84 44.5 156t136 116t223.5 44q155 0 264 -78l3 15q7 34 33.5 48.5t89.5 14.5q57 0 82.5 -11.5z" />
    <glyph glyph-name="Scaron" unicode="&#x160;" 
d="M1141.5 1197.5q25.5 -11.5 25.5 -38.5q0 -8 -1 -13l-49 -274q-6 -34 -30 -48.5t-73 -14.5q-33 0 -50.5 8t-25.5 24q-34 74 -101 114.5t-164 40.5q-58 0 -98.5 -23t-61 -57t-20.5 -67q0 -26 17 -43t51 -31q23 -9 59 -18t73 -17q94 -20 160.5 -41.5t118.5 -59.5
q109 -80 109 -226q0 -117 -48 -215.5t-154 -159t-271 -60.5q-82 0 -154 28t-121 78l-7 -43q-5 -34 -32.5 -48.5t-90.5 -14.5q-57 0 -82.5 11.5t-25.5 38.5q0 8 1 13l59 334q6 34 30 48.5t73 14.5q35 0 54 -9t26 -31q36 -103 101.5 -155t165.5 -52q74 0 120 24.5t66 60.5
t20 75q0 36 -21 60.5t-61 42.5q-28 13 -62 22.5t-90 23.5q-96 24 -157.5 45.5t-107.5 58.5q-87 69 -87 189q0 114 55.5 209t157 151t233.5 56q80 0 147.5 -28t109.5 -77l8 42q7 34 33.5 48.5t89.5 14.5q57 0 82.5 -11.5zM1076 1659q25 0 44 -35q10 -20 10 -34q0 -19 -18 -34
l-323 -261q-24 -18 -58 -18t-52 18l-251 261q-15 15 -15 35q0 16 13 37q20 32 48 32q12 0 24 -6l255 -134l303 134q12 5 20 5z" />
    <glyph glyph-name="scaron" unicode="&#x161;" 
d="M1043 1399q25 0 44 -35q10 -20 10 -34q0 -19 -18 -34l-323 -261q-24 -18 -58 -18t-52 18l-251 261q-15 15 -15 35q0 16 13 37q20 32 48 32q12 0 24 -6l255 -134l303 134q12 5 20 5zM1084.5 934.5q25.5 -11.5 25.5 -38.5q0 -8 -1 -13l-37 -211q-6 -34 -30 -48.5t-73 -14.5
q-54 0 -69 21q-48 63 -119.5 89.5t-171.5 26.5q-69 0 -105 -25t-36 -61q0 -23 17.5 -36t53.5 -21q22 -5 103 -17q102 -14 173 -29.5t127 -47.5q52 -30 80.5 -76.5t28.5 -117.5q0 -88 -44.5 -164t-143.5 -124.5t-255 -48.5q-75 0 -136 19t-119 57l-2 -13q-5 -33 -37 -48
t-96 -15q-57 0 -82.5 11.5t-25.5 38.5q0 8 1 13l39 223q6 33 32 48t75 15q61 0 78 -28q40 -63 112.5 -92t165.5 -29q92 0 134 26t42 65q0 45 -73 62q-25 6 -104 18q-104 16 -172 32.5t-123 49.5q-52 31 -80.5 79t-28.5 120q0 84 44.5 156t136 116t223.5 44q155 0 264 -78
l3 15q7 34 33.5 48.5t89.5 14.5q57 0 82.5 -11.5z" />
    <glyph glyph-name="uni0162" unicode="&#x162;" 
d="M1246 1176.5q13 -10.5 13 -33.5q0 -5 -2 -21l-74 -422q-6 -33 -36 -48t-87 -15q-49 0 -69 10.5t-20 35.5q0 5 2 17l48 272h-181l-135 -767h226q26 0 38 -10.5t12 -39.5q0 -20 -6 -53q-7 -42 -17 -64t-24.5 -30t-38.5 -8h-262l-16 -93q96 3 145.5 -40t49.5 -117
q0 -36 -12 -74t-36 -65q-71 -83 -257 -83q-149 0 -248 41q-18 7 -18 32q0 22 14 53q12 27 27 43.5t31 16.5q7 0 11 -2q42 -17 76.5 -25.5t80.5 -8.5q52 0 74 18t22 46q0 42 -65 42q-21 0 -53 -5q-13 -3 -23 4.5t-10 24.5q0 8 1 12l31 180h-245q-27 0 -39 11t-12 40
q0 25 5 51q11 61 29 82t53 21h206l135 767h-181l-48 -272q-6 -33 -36 -48t-87 -15q-49 0 -69 10.5t-20 35.5q0 5 2 17l74 422q6 34 24 49.5t53 15.5h902q29 0 42 -10.5z" />
    <glyph glyph-name="uni0163" unicode="&#x163;" 
d="M598 371q-5 -25 -5 -55q0 -111 105 -111q46 0 111.5 21t152.5 57q15 7 31 7q22 0 39 -18.5t33 -62.5q14 -40 14 -63t-12 -38t-36 -26q-107 -49 -199 -76t-173 -28l-12 -71q96 3 145.5 -40t49.5 -117q0 -36 -12 -74t-36 -65q-71 -83 -257 -83q-149 0 -248 41q-18 7 -18 32
q0 22 14 53q12 27 27 43.5t31 16.5q7 0 11 -2q42 -17 76.5 -25.5t80.5 -8.5q52 0 74 18t22 46q0 42 -65 42q-21 0 -53 -5q-13 -3 -23 4.5t-10 24.5q0 8 1 12l33 190q-73 33 -112 100t-39 163q0 44 9 95l49 281h-193q-26 0 -38 11.5t-12 41.5q0 21 6 54q11 62 29 85t53 23
h193l50 282q6 34 39 48.5t104 14.5q61 0 85 -11t24 -36q0 -4 -2 -16l-50 -282h371q26 0 38 -12t12 -42q0 -21 -6 -54q-11 -62 -29 -84.5t-53 -22.5h-371z" />
    <glyph glyph-name="Tcaron" unicode="&#x164;" 
d="M1246 1176.5q13 -10.5 13 -33.5q0 -5 -2 -21l-74 -422q-6 -33 -36 -48t-87 -15q-49 0 -69 10.5t-20 35.5q0 5 2 17l48 272h-181l-135 -767h226q26 0 38 -10.5t12 -39.5q0 -20 -6 -53q-7 -42 -17 -64t-24.5 -30t-38.5 -8h-682q-27 0 -39 11t-12 40q0 25 5 51q11 61 29 82
t53 21h206l135 767h-181l-48 -272q-6 -33 -36 -48t-87 -15q-49 0 -69 10.5t-20 35.5q0 5 2 17l74 422q6 34 24 49.5t53 15.5h902q29 0 42 -10.5zM1096 1659q25 0 44 -35q10 -20 10 -34q0 -19 -18 -34l-323 -261q-24 -18 -58 -18t-52 18l-251 261q-15 15 -15 35q0 16 13 37
q20 32 48 32q12 0 24 -6l255 -134l303 134q12 5 20 5z" />
    <glyph glyph-name="tcaron" unicode="&#x165;" 
d="M713 1198q24 -11 24 -36q0 -4 -2 -16l-50 -282h371q26 0 38 -12t12 -42q0 -21 -6 -54q-11 -62 -29 -84.5t-53 -22.5h-371l-49 -278q-5 -25 -5 -55q0 -111 105 -111q46 0 111.5 21t152.5 57q15 7 31 7q22 0 39 -18.5t33 -62.5q14 -40 14 -63t-12 -38t-36 -26
q-107 -50 -200.5 -77t-174.5 -27q-151 0 -234 76.5t-83 218.5q0 44 9 95l49 281h-193q-26 0 -38 11.5t-12 41.5q0 21 6 54q11 62 29 85t53 23h193l50 282q6 34 39 48.5t104 14.5q61 0 85 -11zM1252 1382q0 -12 -9 -25l-209 -313q-29 -43 -99 -43q-29 0 -43.5 9t-14.5 29
q0 9 3 21l88 313q4 12 15 19.5t26 7.5h222q21 0 21 -18z" />
    <glyph glyph-name="Tbar" unicode="&#x166;" 
d="M1246 1176.5q13 -10.5 13 -33.5q0 -5 -2 -21l-74 -422q-6 -33 -36 -48t-87 -15q-49 0 -69 10.5t-20 35.5q0 5 2 17l48 272h-181l-72 -407h156q27 0 39 -11t12 -40q0 -20 -6 -52q-7 -42 -17.5 -64t-25 -30t-38.5 -8h-156l-27 -155h226q26 0 38 -10.5t12 -39.5
q0 -20 -6 -53q-7 -42 -17 -64t-24.5 -30t-38.5 -8h-682q-27 0 -39 11t-12 40q0 25 5 51q11 61 29 82t53 21h206l27 155h-156q-27 0 -39 10.5t-12 39.5q0 21 6 52q7 42 17.5 64t25 30.5t38.5 8.5h156l72 407h-181l-48 -272q-6 -33 -36 -48t-87 -15q-49 0 -69 10.5t-20 35.5
q0 5 2 17l74 422q6 34 24 49.5t53 15.5h902q29 0 42 -10.5z" />
    <glyph glyph-name="tbar" unicode="&#x167;" 
d="M647 649l-18 -104h202q26 0 38 -10.5t12 -39.5q0 -20 -6 -53q-7 -42 -17.5 -64t-25 -30t-38.5 -8h-200q-1 -9 -1 -24q0 -111 105 -111q46 0 111.5 21t152.5 57q15 7 31 7q22 0 39 -18.5t33 -62.5q14 -40 14 -63t-12 -38t-36 -26q-107 -50 -200.5 -77t-174.5 -27
q-151 0 -234 76.5t-83 218.5q0 29 5 67h-112q-27 0 -39 10.5t-12 39.5q0 21 6 52q11 61 29 82t53 21h110l18 104h-193q-26 0 -38 11.5t-12 41.5q0 21 6 54q11 62 29 85t53 23h193l50 282q6 34 39 48.5t104 14.5q61 0 85 -11t24 -36q0 -4 -2 -16l-50 -282h371q26 0 38 -12
t12 -42q0 -21 -6 -54q-11 -62 -29 -84.5t-53 -22.5h-371z" />
    <glyph glyph-name="Utilde" unicode="&#x168;" 
d="M1293 1176q12 -11 12 -40q0 -20 -6 -52q-7 -42 -17.5 -64t-25 -30t-38.5 -8h-47l-103 -579q-37 -209 -167 -317t-341 -108q-123 0 -214 43.5t-140 124.5t-49 192q0 46 9 95l97 549h-47q-27 0 -39 10.5t-12 39.5q0 21 6 52q7 42 17.5 64t25 30.5t38.5 8.5h374q27 0 39 -11
t12 -40q0 -20 -6 -52q-7 -42 -17.5 -64t-25 -30t-38.5 -8h-77l-97 -549q-6 -34 -6 -63q0 -83 45 -124t125 -41q94 0 159 56.5t85 171.5l97 549h-77q-27 0 -39 10.5t-12 39.5q0 21 6 52q7 42 17.5 64t25 30.5t38.5 8.5h374q27 0 39 -11zM701.5 1574.5q35.5 -9.5 84.5 -28.5
q48 -18 78.5 -27t62.5 -9q63 0 122 31q14 7 23 7q31 0 55 -44q15 -28 15 -51q0 -26 -19 -42q-111 -93 -203 -93q-38 0 -73.5 10t-84.5 29q-45 17 -76.5 26t-63.5 9q-65 0 -124 -31q-11 -6 -22 -6q-30 0 -54 44q-16 29 -16 52q0 25 18 40q106 93 205 93q37 0 72.5 -9.5z" />
    <glyph glyph-name="utilde" unicode="&#x169;" 
d="M631.5 1314.5q35.5 -9.5 84.5 -28.5q48 -18 78.5 -27t62.5 -9q63 0 122 31q14 7 23 7q31 0 55 -44q15 -28 15 -51q0 -26 -19 -42q-111 -93 -203 -93q-38 0 -73.5 10t-84.5 29q-45 17 -76.5 26t-63.5 9q-65 0 -124 -31q-11 -6 -22 -6q-30 0 -54 44q-16 29 -16 52
q0 25 18 40q106 93 205 93q37 0 72.5 -9.5zM1102 914q13 -10 13 -32q0 -5 -2 -21l-115 -656h77q27 0 39 -10.5t12 -39.5q0 -20 -6 -52q-7 -42 -17.5 -64t-25 -30.5t-38.5 -8.5h-224q-28 0 -41 10t-13 32q0 5 2 21l25 145q-86 -119 -175 -174.5t-185 -55.5q-79 0 -137 34
t-89.5 95.5t-31.5 141.5q0 39 7 75l69 395h-77q-27 0 -39 11t-12 40q0 21 6 52q7 42 17.5 64t25 30t38.5 8h264q28 0 41 -10t13 -32q0 -5 -2 -21l-87 -498q-6 -31 -6 -58q0 -49 22.5 -74.5t72.5 -25.5q58 0 120.5 55.5t110 144.5t62.5 181l22 133h-107q-27 0 -39 11t-12 40
q0 21 6 52q7 42 17.5 64t25 30t38.5 8h294q28 0 41 -10z" />
    <glyph glyph-name="Umacron" unicode="&#x16a;" 
d="M1293 1176q12 -11 12 -40q0 -20 -6 -52q-7 -42 -17.5 -64t-25 -30t-38.5 -8h-47l-103 -579q-37 -209 -167 -317t-341 -108q-123 0 -214 43.5t-140 124.5t-49 192q0 46 9 95l97 549h-47q-27 0 -39 10.5t-12 39.5q0 21 6 52q7 42 17.5 64t25 30.5t38.5 8.5h374q27 0 39 -11
t12 -40q0 -20 -6 -52q-7 -42 -17.5 -64t-25 -30t-38.5 -8h-77l-97 -549q-6 -34 -6 -63q0 -83 45 -124t125 -41q94 0 159 56.5t85 171.5l97 549h-77q-27 0 -39 10.5t-12 39.5q0 21 6 52q7 42 17.5 64t25 30.5t38.5 8.5h374q27 0 39 -11zM1118 1534q12 -11 12 -40
q0 -20 -6 -52q-7 -42 -17.5 -64t-25 -30t-38.5 -8h-562q-27 0 -39 10.5t-12 39.5q0 21 6 52q7 42 17.5 64t25 30.5t38.5 8.5h562q27 0 39 -11z" />
    <glyph glyph-name="umacron" unicode="&#x16b;" 
d="M1102 914q13 -10 13 -32q0 -5 -2 -21l-115 -656h77q27 0 39 -10.5t12 -39.5q0 -20 -6 -52q-7 -42 -17.5 -64t-25 -30.5t-38.5 -8.5h-224q-28 0 -41 10t-13 32q0 5 2 21l25 145q-86 -119 -175 -174.5t-185 -55.5q-79 0 -137 34t-89.5 95.5t-31.5 141.5q0 39 7 75l69 395
h-77q-27 0 -39 11t-12 40q0 21 6 52q7 42 17.5 64t25 30t38.5 8h264q28 0 41 -10t13 -32q0 -5 -2 -21l-87 -498q-6 -31 -6 -58q0 -49 22.5 -74.5t72.5 -25.5q58 0 120.5 55.5t110 144.5t62.5 181l22 133h-107q-27 0 -39 11t-12 40q0 21 6 52q7 42 17.5 64t25 30t38.5 8h294
q28 0 41 -10zM1048 1264q12 -11 12 -40q0 -20 -6 -52q-7 -42 -17.5 -64t-25 -30t-38.5 -8h-562q-27 0 -39 10.5t-12 39.5q0 21 6 52q7 42 17.5 64t25 30.5t38.5 8.5h562q27 0 39 -11z" />
    <glyph glyph-name="Ubreve" unicode="&#x16c;" 
d="M1293 1176q12 -11 12 -40q0 -20 -6 -52q-7 -42 -17.5 -64t-25 -30t-38.5 -8h-47l-103 -579q-37 -209 -167 -317t-341 -108q-123 0 -214 43.5t-140 124.5t-49 192q0 46 9 95l97 549h-47q-27 0 -39 10.5t-12 39.5q0 21 6 52q7 42 17.5 64t25 30.5t38.5 8.5h374q27 0 39 -11
t12 -40q0 -20 -6 -52q-7 -42 -17.5 -64t-25 -30t-38.5 -8h-77l-97 -549q-6 -34 -6 -63q0 -83 45 -124t125 -41q94 0 159 56.5t85 171.5l97 549h-77q-27 0 -39 10.5t-12 39.5q0 21 6 52q7 42 17.5 64t25 30.5t38.5 8.5h374q27 0 39 -11zM1158.5 1619.5q14.5 -15.5 14.5 -33.5
q0 -6 -4 -18q-49 -121 -152 -189t-260 -68q-160 0 -250.5 67t-111.5 190q-1 3 -1 8q0 19 14.5 37t40.5 29q29 13 54 13q30 0 40 -20q30 -61 83.5 -90.5t146.5 -29.5q91 0 147.5 29.5t104.5 90.5q17 20 47 20q22 0 49 -11q23 -9 37.5 -24.5z" />
    <glyph glyph-name="ubreve" unicode="&#x16d;" 
d="M1088.5 1349.5q14.5 -15.5 14.5 -33.5q0 -6 -4 -18q-49 -121 -152 -189t-260 -68q-160 0 -250.5 67t-111.5 190q-1 3 -1 8q0 19 14.5 37t40.5 29q29 13 54 13q30 0 40 -20q30 -61 83.5 -90.5t146.5 -29.5q91 0 147.5 29.5t104.5 90.5q17 20 47 20q22 0 49 -11
q23 -9 37.5 -24.5zM1102 914q13 -10 13 -32q0 -5 -2 -21l-115 -656h77q27 0 39 -10.5t12 -39.5q0 -20 -6 -52q-7 -42 -17.5 -64t-25 -30.5t-38.5 -8.5h-224q-28 0 -41 10t-13 32q0 5 2 21l25 145q-86 -119 -175 -174.5t-185 -55.5q-79 0 -137 34t-89.5 95.5t-31.5 141.5
q0 39 7 75l69 395h-77q-27 0 -39 11t-12 40q0 21 6 52q7 42 17.5 64t25 30t38.5 8h264q28 0 41 -10t13 -32q0 -5 -2 -21l-87 -498q-6 -31 -6 -58q0 -49 22.5 -74.5t72.5 -25.5q58 0 120.5 55.5t110 144.5t62.5 181l22 133h-107q-27 0 -39 11t-12 40q0 21 6 52q7 42 17.5 64
t25 30t38.5 8h294q28 0 41 -10z" />
    <glyph glyph-name="Uring" unicode="&#x16e;" 
d="M1293 1176q12 -11 12 -40q0 -20 -6 -52q-7 -42 -17.5 -64t-25 -30t-38.5 -8h-47l-103 -579q-37 -209 -167 -317t-341 -108q-123 0 -214 43.5t-140 124.5t-49 192q0 46 9 95l97 549h-47q-27 0 -39 10.5t-12 39.5q0 21 6 52q7 42 17.5 64t25 30.5t38.5 8.5h374q27 0 39 -11
t12 -40q0 -20 -6 -52q-7 -42 -17.5 -64t-25 -30t-38.5 -8h-77l-97 -549q-6 -34 -6 -63q0 -83 45 -124t125 -41q94 0 159 56.5t85 171.5l97 549h-77q-27 0 -39 10.5t-12 39.5q0 21 6 52q7 42 17.5 64t25 30.5t38.5 8.5h374q27 0 39 -11zM937 1766q52 -31 82 -83.5t30 -114.5
q0 -73 -38.5 -141t-107.5 -111t-154 -43q-64 0 -116 30.5t-82 83t-30 114.5q0 76 39.5 144t108.5 110t152 42q64 0 116 -31zM741.5 1620.5q-28.5 -17.5 -45 -45.5t-16.5 -58q0 -37 24.5 -61t62.5 -24q32 0 60 17t45 45t17 59q0 36 -24 60.5t-62 24.5q-33 0 -61.5 -17.5z" />
    <glyph glyph-name="uring" unicode="&#x16f;" 
d="M1102 914q13 -10 13 -32q0 -5 -2 -21l-115 -656h77q27 0 39 -10.5t12 -39.5q0 -20 -6 -52q-7 -42 -17.5 -64t-25 -30.5t-38.5 -8.5h-224q-28 0 -41 10t-13 32q0 5 2 21l25 145q-86 -119 -175 -174.5t-185 -55.5q-79 0 -137 34t-89.5 95.5t-31.5 141.5q0 39 7 75l69 395
h-77q-27 0 -39 11t-12 40q0 21 6 52q7 42 17.5 64t25 30t38.5 8h264q28 0 41 -10t13 -32q0 -5 -2 -21l-87 -498q-6 -31 -6 -58q0 -49 22.5 -74.5t72.5 -25.5q58 0 120.5 55.5t110 144.5t62.5 181l22 133h-107q-27 0 -39 11t-12 40q0 21 6 52q7 42 17.5 64t25 30t38.5 8h294
q28 0 41 -10zM867 1526q52 -31 82 -83.5t30 -114.5q0 -73 -38.5 -141t-107.5 -111t-154 -43q-64 0 -116 30.5t-82 83t-30 114.5q0 76 39.5 144t108.5 110t152 42q64 0 116 -31zM671.5 1380.5q-28.5 -17.5 -45 -45.5t-16.5 -58q0 -37 24.5 -61t62.5 -24q32 0 60 17t45 45
t17 59q0 36 -24 60.5t-62 24.5q-33 0 -61.5 -17.5z" />
    <glyph glyph-name="Uhungarumlaut" unicode="&#x170;" 
d="M1293 1176q12 -11 12 -40q0 -20 -6 -52q-7 -42 -17.5 -64t-25 -30t-38.5 -8h-47l-103 -579q-37 -209 -167 -317t-341 -108q-123 0 -214 43.5t-140 124.5t-49 192q0 46 9 95l97 549h-47q-27 0 -39 10.5t-12 39.5q0 21 6 52q7 42 17.5 64t25 30.5t38.5 8.5h374q27 0 39 -11
t12 -40q0 -20 -6 -52q-7 -42 -17.5 -64t-25 -30t-38.5 -8h-77l-97 -549q-6 -34 -6 -63q0 -83 45 -124t125 -41q94 0 159 56.5t85 171.5l97 549h-77q-27 0 -39 10.5t-12 39.5q0 21 6 52q7 42 17.5 64t25 30.5t38.5 8.5h374q27 0 39 -11zM846.5 1602q17.5 -17 17.5 -33
q0 -15 -15 -25l-298 -208q-16 -12 -40 -12q-25 0 -48 13q-24 14 -24 34q0 14 9 24l198 243q17 22 55 22q39 0 91 -24q37 -17 54.5 -34zM1276.5 1602q17.5 -17 17.5 -33q0 -15 -15 -25l-298 -208q-16 -12 -40 -12q-25 0 -48 13q-24 14 -24 34q0 14 9 24l198 243q17 22 55 22
q39 0 91 -24q37 -17 54.5 -34z" />
    <glyph glyph-name="uhungarumlaut" unicode="&#x171;" 
d="M1102 914q13 -10 13 -32q0 -5 -2 -21l-115 -656h77q27 0 39 -10.5t12 -39.5q0 -20 -6 -52q-7 -42 -17.5 -64t-25 -30.5t-38.5 -8.5h-224q-28 0 -41 10t-13 32q0 5 2 21l25 145q-86 -119 -175 -174.5t-185 -55.5q-79 0 -137 34t-89.5 95.5t-31.5 141.5q0 39 7 75l69 395
h-77q-27 0 -39 11t-12 40q0 21 6 52q7 42 17.5 64t25 30t38.5 8h264q28 0 41 -10t13 -32q0 -5 -2 -21l-87 -498q-6 -31 -6 -58q0 -49 22.5 -74.5t72.5 -25.5q58 0 120.5 55.5t110 144.5t62.5 181l22 133h-107q-27 0 -39 11t-12 40q0 21 6 52q7 42 17.5 64t25 30t38.5 8h294
q28 0 41 -10zM756.5 1332q17.5 -17 17.5 -33q0 -15 -15 -25l-298 -208q-16 -12 -40 -12q-25 0 -48 13q-24 14 -24 34q0 14 9 24l198 243q17 22 55 22q39 0 91 -24q37 -17 54.5 -34zM1186.5 1332q17.5 -17 17.5 -33q0 -15 -15 -25l-298 -208q-16 -12 -40 -12q-25 0 -48 13
q-24 14 -24 34q0 14 9 24l198 243q17 22 55 22q39 0 91 -24q37 -17 54.5 -34z" />
    <glyph glyph-name="Uogonek" unicode="&#x172;" 
d="M1293 1176q12 -11 12 -40q0 -20 -6 -52q-7 -42 -17.5 -64t-25 -30t-38.5 -8h-47l-103 -579q-25 -138 -90.5 -232.5t-169.5 -143.5q-113 -80 -176 -144.5t-63 -117.5q0 -63 78 -63q45 0 119 13q20 4 34 -12.5t18 -52.5q1 -7 1 -20q0 -53 -41 -66q-51 -16 -115 -26
t-122 -10q-104 0 -163 45.5t-59 126.5q0 153 199 279q-111 7 -192.5 52.5t-125 124t-43.5 182.5q0 46 9 95l97 549h-47q-27 0 -39 10.5t-12 39.5q0 21 6 52q7 42 17.5 64t25 30.5t38.5 8.5h374q27 0 39 -11t12 -40q0 -20 -6 -52q-7 -42 -17.5 -64t-25 -30t-38.5 -8h-77
l-97 -549q-6 -34 -6 -63q0 -83 45 -124t125 -41q94 0 159 56.5t85 171.5l97 549h-77q-27 0 -39 10.5t-12 39.5q0 21 6 52q7 42 17.5 64t25 30.5t38.5 8.5h374q27 0 39 -11z" />
    <glyph glyph-name="uogonek" unicode="&#x173;" 
d="M1114 194.5q12 -10.5 12 -39.5q0 -20 -6 -52q-7 -42 -17.5 -64t-25 -30.5t-38.5 -8.5h-9q-96 -71 -148.5 -129t-52.5 -106q0 -63 78 -63q45 0 119 13q20 4 34 -12.5t18 -52.5q1 -7 1 -20q0 -53 -41 -66q-51 -16 -115 -26t-122 -10q-104 0 -163 45.5t-59 126.5
q0 90 62 163.5t171 136.5q-27 1 -39 10.5t-12 31.5q0 5 2 21l25 145q-86 -119 -175 -174.5t-185 -55.5q-79 0 -137 34t-89.5 95.5t-31.5 141.5q0 39 7 75l69 395h-77q-27 0 -39 11t-12 40q0 21 6 52q7 42 17.5 64t25 30t38.5 8h264q28 0 41 -10t13 -32q0 -5 -2 -21l-87 -498
q-6 -31 -6 -58q0 -49 22.5 -74.5t72.5 -25.5q58 0 120.5 55.5t110 144.5t62.5 181l22 133h-107q-27 0 -39 11t-12 40q0 21 6 52q7 42 17.5 64t25 30t38.5 8h294q28 0 41 -10t13 -32q0 -5 -2 -21l-115 -656h77q27 0 39 -10.5z" />
    <glyph glyph-name="Wcircumflex" unicode="&#x174;" 
d="M1363 1176q12 -11 12 -40q0 -20 -6 -52q-7 -42 -17.5 -64t-25 -30t-38.5 -8h-55l-268 -939q-7 -25 -20.5 -39t-39.5 -20t-72 -6q-66 0 -93 15t-33 50l-77 471l-245 -471q-19 -36 -51 -50.5t-99 -14.5q-46 0 -69.5 6t-32 20t-6.5 39l68 939h-49q-27 0 -39 10.5t-12 39.5
q0 21 6 52q7 42 17.5 64t25 30.5t38.5 8.5h384q27 0 39 -11t12 -40q0 -20 -6 -52q-7 -42 -17.5 -64t-25 -30t-38.5 -8h-118l-46 -574l218 418q12 23 33.5 35t68.5 12q49 0 69.5 -9.5t23.5 -30.5l70 -425l159 574h-104q-27 0 -39 10.5t-12 39.5q0 21 6 52q7 42 17.5 64
t25 30.5t38.5 8.5h384q27 0 39 -11zM853 1658l251 -261q15 -15 15 -35q0 -16 -13 -37q-20 -32 -48 -32q-12 0 -24 6l-255 134l-303 -134q-12 -5 -20 -5q-25 0 -44 35q-11 19 -11 34q0 19 19 34l323 261q24 18 58 18q37 0 52 -18z" />
    <glyph glyph-name="wcircumflex" unicode="&#x175;" 
d="M813 1388l251 -261q15 -15 15 -35q0 -16 -13 -37q-20 -32 -48 -32q-12 0 -24 6l-255 134l-303 -134q-12 -5 -20 -5q-25 0 -44 35q-11 19 -11 34q0 19 19 34l323 261q24 18 58 18q37 0 52 -18zM1316 913q12 -11 12 -40q0 -20 -6 -52q-7 -42 -17.5 -64t-25 -30t-38.5 -8
h-41l-265 -676q-14 -36 -43 -50.5t-89 -14.5q-59 0 -84 15.5t-32 49.5l-77 355l-205 -355q-20 -35 -51 -50t-89 -15q-60 0 -83 14.5t-25 50.5l-24 676h-34q-27 0 -39 10.5t-12 39.5q0 21 6 52q7 42 17.5 64t25 30.5t38.5 8.5h336q27 0 39 -11t12 -40q0 -20 -6 -52
q-7 -42 -17.5 -64t-25 -30t-38.5 -8h-85l7 -388l198 339q16 28 40.5 42.5t65.5 14.5q43 0 62.5 -12t25.5 -38l76 -346l146 388h-72q-27 0 -39 10.5t-12 39.5q0 21 6 52q7 42 17.5 64t25 30.5t38.5 8.5h342q27 0 39 -11z" />
    <glyph glyph-name="Ycircumflex" unicode="&#x176;" 
d="M1303 1176q12 -11 12 -40q0 -20 -6 -52q-7 -42 -17.5 -64t-25 -30t-38.5 -8h-45l-433 -522l-45 -255h206q26 0 38 -10.5t12 -39.5q0 -20 -6 -53q-7 -42 -17 -64t-24.5 -30t-38.5 -8h-642q-27 0 -39 11t-12 40q0 25 5 51q11 61 29 82t53 21h186l46 262l-245 515h-50
q-27 0 -39 10.5t-12 39.5q0 21 6 52q7 42 17.5 64t25 30.5t38.5 8.5h384q27 0 39 -11t12 -40q0 -20 -6 -52q-7 -42 -17.5 -64t-25 -30t-38.5 -8h-67l134 -292l239 292h-52q-27 0 -39 10.5t-12 39.5q0 21 6 52q7 42 17.5 64t25 30.5t38.5 8.5h384q27 0 39 -11zM863 1658
l251 -261q15 -15 15 -35q0 -16 -13 -37q-20 -32 -48 -32q-12 0 -24 6l-255 134l-303 -134q-12 -5 -20 -5q-25 0 -44 35q-11 19 -11 34q0 19 19 34l323 261q24 18 58 18q37 0 52 -18z" />
    <glyph glyph-name="ycircumflex" unicode="&#x177;" 
d="M1256 913q12 -11 12 -40q0 -20 -6 -52q-7 -42 -17.5 -64t-25 -30t-38.5 -8h-59l-520 -776q-95 -142 -171.5 -215t-161.5 -103.5t-212 -34.5q-32 -1 -48 21.5t-16 81.5q0 119 64 123q80 5 134.5 31.5t105.5 83t129 169.5l-192 619h-75q-27 0 -39 10.5t-12 39.5q0 21 6 52
q7 42 17.5 64t25 30.5t38.5 8.5h394q27 0 39 -11t12 -40q0 -20 -6 -52q-7 -42 -17.5 -64t-25 -30t-38.5 -8h-60l107 -380l241 380h-54q-27 0 -39 10.5t-12 39.5q0 21 6 52q7 42 17.5 64t25 30.5t38.5 8.5h394q27 0 39 -11zM818 1388l251 -261q15 -15 15 -35q0 -16 -13 -37
q-20 -32 -48 -32q-12 0 -24 6l-255 134l-303 -134q-12 -5 -20 -5q-25 0 -44 35q-11 19 -11 34q0 19 19 34l323 261q24 18 58 18q37 0 52 -18z" />
    <glyph glyph-name="Ydieresis" unicode="&#x178;" 
d="M1303 1176q12 -11 12 -40q0 -20 -6 -52q-7 -42 -17.5 -64t-25 -30t-38.5 -8h-45l-433 -522l-45 -255h206q26 0 38 -10.5t12 -39.5q0 -20 -6 -53q-7 -42 -17 -64t-24.5 -30t-38.5 -8h-642q-27 0 -39 11t-12 40q0 25 5 51q11 61 29 82t53 21h186l46 262l-245 515h-50
q-27 0 -39 10.5t-12 39.5q0 21 6 52q7 42 17.5 64t25 30.5t38.5 8.5h384q27 0 39 -11t12 -40q0 -20 -6 -52q-7 -42 -17.5 -64t-25 -30t-38.5 -8h-67l134 -292l239 292h-52q-27 0 -39 10.5t-12 39.5q0 21 6 52q7 42 17.5 64t25 30.5t38.5 8.5h384q27 0 39 -11zM668 1577
q37 -38 37 -93q0 -47 -23.5 -85.5t-63 -61t-83.5 -22.5q-57 0 -94.5 38t-37.5 93q0 47 24 85.5t63.5 61t83.5 22.5q57 0 94 -38zM1128 1577q37 -38 37 -93q0 -47 -23.5 -85.5t-63 -61t-83.5 -22.5q-57 0 -94.5 38t-37.5 93q0 47 24 85.5t63.5 61t83.5 22.5q57 0 94 -38z" />
    <glyph glyph-name="Zacute" unicode="&#x179;" 
d="M1185 1176q12 -11 12 -40q0 -20 -6 -52q-11 -58 -40 -92l-681 -777h357l40 222q5 33 37 48t96 15q55 0 76.5 -11t21.5 -37q0 -9 -1 -15l-66 -372q-6 -35 -24 -50t-52 -15h-814q-27 0 -39 11t-12 40q0 25 5 51q11 64 37 93l681 777h-324l-36 -202q-6 -34 -37.5 -48.5
t-95.5 -14.5q-55 0 -77 11t-22 36q0 4 2 16l62 352q6 34 24 49.5t53 15.5h784q27 0 39 -11zM986 1670q49 0 93 -99q26 -61 26 -97q0 -38 -29 -46l-480 -125q-6 -2 -16 -2q-18 0 -31.5 11t-20.5 30q-5 13 -5 25q0 14 7.5 27t20.5 21l408 247q14 8 27 8z" />
    <glyph glyph-name="zacute" unicode="&#x17a;" 
d="M946 1400q49 0 93 -99q26 -61 26 -97q0 -38 -29 -46l-480 -125q-6 -2 -16 -2q-18 0 -31.5 11t-20.5 30q-5 13 -5 25q0 14 7.5 27t20.5 21l408 247q14 8 27 8zM1138 913.5q12 -10.5 12 -39.5q0 -20 -6 -52q-4 -27 -14.5 -45t-31.5 -37l-587 -535h315l22 124q5 34 34 48.5
t99 14.5q58 0 78.5 -10t20.5 -33q0 -6 -2 -20l-47 -264q-6 -35 -24 -50t-52 -15h-814q-27 0 -39 11t-12 40q0 25 5 51q5 27 15.5 45t31.5 37l587 535h-295l-20 -114q-6 -35 -34.5 -49t-98.5 -14q-58 0 -78.5 9.5t-20.5 32.5q0 5 2 21l45 254q6 35 24 50t52 15h794
q27 0 39 -10.5z" />
    <glyph glyph-name="Zdotaccent" unicode="&#x17b;" 
d="M1185 1176q12 -11 12 -40q0 -20 -6 -52q-11 -58 -40 -92l-681 -777h357l40 222q5 33 37 48t96 15q55 0 76.5 -11t21.5 -37q0 -9 -1 -15l-66 -372q-6 -35 -24 -50t-52 -15h-814q-27 0 -39 11t-12 40q0 25 5 51q11 64 37 93l681 777h-324l-36 -202q-6 -34 -37.5 -48.5
t-95.5 -14.5q-55 0 -77 11t-22 36q0 4 2 16l62 352q6 34 24 49.5t53 15.5h784q27 0 39 -11zM895 1655q36 -21 56.5 -57t20.5 -79q0 -52 -26 -99t-72.5 -75.5t-105.5 -28.5q-45 0 -81.5 21.5t-57 58t-20.5 79.5q0 50 27 96.5t74 75.5t104 29q45 0 81 -21z" />
    <glyph glyph-name="zdotaccent" unicode="&#x17c;" 
d="M1138 913.5q12 -10.5 12 -39.5q0 -20 -6 -52q-4 -27 -14.5 -45t-31.5 -37l-587 -535h315l22 124q5 34 34 48.5t99 14.5q58 0 78.5 -10t20.5 -33q0 -6 -2 -20l-47 -264q-6 -35 -24 -50t-52 -15h-814q-27 0 -39 11t-12 40q0 25 5 51q5 27 15.5 45t31.5 37l587 535h-295
l-20 -114q-6 -35 -34.5 -49t-98.5 -14q-58 0 -78.5 9.5t-20.5 32.5q0 5 2 21l45 254q6 35 24 50t52 15h794q27 0 39 -10.5zM850 1385q36 -21 56.5 -57t20.5 -79q0 -52 -26 -99t-72.5 -75.5t-105.5 -28.5q-45 0 -81.5 21.5t-57 58t-20.5 79.5q0 50 27 96.5t74 75.5t104 29
q45 0 81 -21z" />
    <glyph glyph-name="Zcaron" unicode="&#x17d;" 
d="M1185 1176q12 -11 12 -40q0 -20 -6 -52q-11 -58 -40 -92l-681 -777h357l40 222q5 33 37 48t96 15q55 0 76.5 -11t21.5 -37q0 -9 -1 -15l-66 -372q-6 -35 -24 -50t-52 -15h-814q-27 0 -39 11t-12 40q0 25 5 51q11 64 37 93l681 777h-324l-36 -202q-6 -34 -37.5 -48.5
t-95.5 -14.5q-55 0 -77 11t-22 36q0 4 2 16l62 352q6 34 24 49.5t53 15.5h784q27 0 39 -11zM1106 1659q25 0 44 -35q10 -20 10 -34q0 -19 -18 -34l-323 -261q-24 -18 -58 -18t-52 18l-251 261q-15 15 -15 35q0 16 13 37q20 32 48 32q12 0 24 -6l255 -134l303 134q12 5 20 5z
" />
    <glyph glyph-name="zcaron" unicode="&#x17e;" 
d="M1138 913.5q12 -10.5 12 -39.5q0 -20 -6 -52q-4 -27 -14.5 -45t-31.5 -37l-587 -535h315l22 124q5 34 34 48.5t99 14.5q58 0 78.5 -10t20.5 -33q0 -6 -2 -20l-47 -264q-6 -35 -24 -50t-52 -15h-814q-27 0 -39 11t-12 40q0 25 5 51q5 27 15.5 45t31.5 37l587 535h-295
l-20 -114q-6 -35 -34.5 -49t-98.5 -14q-58 0 -78.5 9.5t-20.5 32.5q0 5 2 21l45 254q6 35 24 50t52 15h794q27 0 39 -10.5zM1056 1389q25 0 44 -35q10 -20 10 -34q0 -19 -18 -34l-323 -261q-24 -18 -58 -18t-52 18l-251 261q-15 15 -15 35q0 16 13 37q20 32 48 32
q12 0 24 -6l255 -134l303 134q12 5 20 5z" />
    <glyph glyph-name="florin" unicode="&#x192;" 
d="M1288 1263q11 -14 11 -40q0 -30 -14 -72q-28 -88 -88 -88q-8 0 -26 4q-83 23 -162 23q-63 0 -107.5 -41t-66.5 -125l-16 -60h237q26 0 38 -12t12 -42q0 -21 -6 -54q-11 -62 -29 -84.5t-53 -22.5h-255l-150 -568q-48 -184 -158 -272t-286 -88q-115 0 -218 33
q-22 7 -32.5 20.5t-10.5 38.5q0 26 14 74q27 88 87 88q8 0 26 -4q83 -23 162 -23q63 0 107.5 41t66.5 125l141 535h-198q-26 0 -38 11.5t-12 41.5q0 21 6 54q11 62 29 85t53 23h217l24 93q48 184 158.5 272t285.5 88q115 0 218 -33q22 -7 33 -21z" />
    <glyph glyph-name="uni0218" unicode="&#x218;" 
d="M1141.5 1197.5q25.5 -11.5 25.5 -38.5q0 -8 -1 -13l-49 -274q-6 -34 -30 -48.5t-73 -14.5q-33 0 -50.5 8t-25.5 24q-34 74 -101 114.5t-164 40.5q-58 0 -98.5 -23t-61 -57t-20.5 -67q0 -26 17 -43t51 -31q23 -9 59 -18t73 -17q94 -20 160.5 -41.5t118.5 -59.5
q109 -80 109 -226q0 -117 -48 -215.5t-154 -159t-271 -60.5q-82 0 -154 28t-121 78l-7 -43q-5 -34 -32.5 -48.5t-90.5 -14.5q-57 0 -82.5 11.5t-25.5 38.5q0 8 1 13l59 334q6 34 30 48.5t73 14.5q35 0 54 -9t26 -31q36 -103 101.5 -155t165.5 -52q74 0 120 24.5t66 60.5
t20 75q0 36 -21 60.5t-61 42.5q-28 13 -62 22.5t-90 23.5q-96 24 -157.5 45.5t-107.5 58.5q-87 69 -87 189q0 114 55.5 209t157 151t233.5 56q80 0 147.5 -28t109.5 -77l8 42q7 34 33.5 48.5t89.5 14.5q57 0 82.5 -11.5zM722 -164q0 -12 -9 -25l-209 -313q-29 -43 -99 -43
q-29 0 -43.5 9t-14.5 29q0 9 3 21l88 313q4 12 15 19.5t26 7.5h222q21 0 21 -18z" />
    <glyph glyph-name="uni0219" unicode="&#x219;" 
d="M1084.5 934.5q25.5 -11.5 25.5 -38.5q0 -8 -1 -13l-37 -211q-6 -34 -30 -48.5t-73 -14.5q-54 0 -69 21q-48 63 -119.5 89.5t-171.5 26.5q-69 0 -105 -25t-36 -61q0 -23 17.5 -36t53.5 -21q22 -5 103 -17q102 -14 173 -29.5t127 -47.5q52 -30 80.5 -76.5t28.5 -117.5
q0 -88 -44.5 -164t-143.5 -124.5t-255 -48.5q-75 0 -136 19t-119 57l-2 -13q-5 -33 -37 -48t-96 -15q-57 0 -82.5 11.5t-25.5 38.5q0 8 1 13l39 223q6 33 32 48t75 15q61 0 78 -28q40 -63 112.5 -92t165.5 -29q92 0 134 26t42 65q0 45 -73 62q-25 6 -104 18
q-104 16 -172 32.5t-123 49.5q-52 31 -80.5 79t-28.5 120q0 84 44.5 156t136 116t223.5 44q155 0 264 -78l3 15q7 34 33.5 48.5t89.5 14.5q57 0 82.5 -11.5zM702 -164q0 -12 -9 -25l-209 -313q-29 -43 -99 -43q-29 0 -43.5 9t-14.5 29q0 9 3 21l88 313q4 12 15 19.5t26 7.5
h222q21 0 21 -18z" />
    <glyph glyph-name="uni021A" unicode="&#x21a;" 
d="M1246 1176.5q13 -10.5 13 -33.5q0 -5 -2 -21l-74 -422q-6 -33 -36 -48t-87 -15q-49 0 -69 10.5t-20 35.5q0 5 2 17l48 272h-181l-135 -767h226q26 0 38 -10.5t12 -39.5q0 -20 -6 -53q-7 -42 -17 -64t-24.5 -30t-38.5 -8h-682q-27 0 -39 11t-12 40q0 25 5 51q11 61 29 82
t53 21h206l135 767h-181l-48 -272q-6 -33 -36 -48t-87 -15q-49 0 -69 10.5t-20 35.5q0 5 2 17l74 422q6 34 24 49.5t53 15.5h902q29 0 42 -10.5zM672 -164q0 -12 -9 -25l-209 -313q-29 -43 -99 -43q-29 0 -43.5 9t-14.5 29q0 9 3 21l88 313q4 12 15 19.5t26 7.5h222
q21 0 21 -18z" />
    <glyph glyph-name="uni021B" unicode="&#x21b;" 
d="M713 1198q24 -11 24 -36q0 -4 -2 -16l-50 -282h371q26 0 38 -12t12 -42q0 -21 -6 -54q-11 -62 -29 -84.5t-53 -22.5h-371l-49 -278q-5 -25 -5 -55q0 -111 105 -111q46 0 111.5 21t152.5 57q15 7 31 7q22 0 39 -18.5t33 -62.5q14 -40 14 -63t-12 -38t-36 -26
q-107 -50 -200.5 -77t-174.5 -27q-151 0 -234 76.5t-83 218.5q0 44 9 95l49 281h-193q-26 0 -38 11.5t-12 41.5q0 21 6 54q11 62 29 85t53 23h193l50 282q6 34 39 48.5t104 14.5q61 0 85 -11zM742 -164q0 -12 -9 -25l-209 -313q-29 -43 -99 -43q-29 0 -43.5 9t-14.5 29
q0 9 3 21l88 313q4 12 15 19.5t26 7.5h222q21 0 21 -18z" />
    <glyph glyph-name="uni0237" unicode="&#x237;" 
d="M993 914q13 -10 13 -32q0 -5 -2 -21l-159 -901q-33 -188 -131 -279t-271 -91q-84 0 -172.5 26.5t-173.5 73.5q-36 20 -36 55q0 30 27 82q22 41 42.5 58.5t41.5 17.5q14 0 32 -8q76 -37 133.5 -57.5t103.5 -20.5q130 0 159 166l129 736h-383q-27 0 -39 10.5t-12 39.5
q0 21 6 52q7 42 17.5 64t25 30.5t38.5 8.5h570q28 0 41 -10z" />
    <glyph glyph-name="circumflex" unicode="&#x2c6;" 
d="M833 1388l251 -261q15 -15 15 -35q0 -16 -13 -37q-20 -32 -48 -32q-12 0 -24 6l-255 134l-303 -134q-12 -5 -20 -5q-25 0 -44 35q-11 19 -11 34q0 19 19 34l323 261q24 18 58 18q37 0 52 -18z" />
    <glyph glyph-name="caron" unicode="&#x2c7;" 
d="M1076 1389q25 0 44 -35q10 -20 10 -34q0 -19 -18 -34l-323 -261q-24 -18 -58 -18t-52 18l-251 261q-15 15 -15 35q0 16 13 37q20 32 48 32q12 0 24 -6l255 -134l303 134q12 5 20 5z" />
    <glyph glyph-name="breve" unicode="&#x2d8;" 
d="M1148.5 1349.5q14.5 -15.5 14.5 -33.5q0 -6 -4 -18q-49 -121 -152 -189t-260 -68q-160 0 -250.5 67t-111.5 190q-1 3 -1 8q0 19 14.5 37t40.5 29q29 13 54 13q30 0 40 -20q30 -61 83.5 -90.5t146.5 -29.5q91 0 147.5 29.5t104.5 90.5q17 20 47 20q22 0 49 -11
q23 -9 37.5 -24.5z" />
    <glyph glyph-name="dotaccent" unicode="&#x2d9;" 
d="M865 1385q36 -21 56.5 -57t20.5 -79q0 -52 -26 -99t-72.5 -75.5t-105.5 -28.5q-45 0 -81.5 21.5t-57 58t-20.5 79.5q0 50 27 96.5t74 75.5t104 29q45 0 81 -21z" />
    <glyph glyph-name="ring" unicode="&#x2da;" 
d="M927 1526q52 -31 82 -83.5t30 -114.5q0 -73 -38.5 -141t-107.5 -111t-154 -43q-64 0 -116 30.5t-82 83t-30 114.5q0 76 39.5 144t108.5 110t152 42q64 0 116 -31zM731.5 1380.5q-28.5 -17.5 -45 -45.5t-16.5 -58q0 -37 24.5 -61t62.5 -24q32 0 60 17t45 45t17 59
q0 36 -24 60.5t-62 24.5q-33 0 -61.5 -17.5z" />
    <glyph glyph-name="ogonek" unicode="&#x2db;" 
d="M542 -117.5q-63 -64.5 -63 -117.5q0 -63 78 -63q45 0 119 13q20 4 34 -12.5t18 -52.5q1 -7 1 -20q0 -53 -41 -66q-51 -16 -115 -26t-122 -10q-104 0 -163 45.5t-59 126.5q0 100 75.5 179.5t207.5 148.5h207q-114 -81 -177 -145.5z" />
    <glyph glyph-name="tilde" unicode="&#x2dc;" 
d="M681.5 1314.5q35.5 -9.5 84.5 -28.5q48 -18 78.5 -27t62.5 -9q63 0 122 31q14 7 23 7q31 0 55 -44q15 -28 15 -51q0 -26 -19 -42q-111 -93 -203 -93q-38 0 -73.5 10t-84.5 29q-45 17 -76.5 26t-63.5 9q-65 0 -124 -31q-11 -6 -22 -6q-30 0 -54 44q-16 29 -16 52
q0 25 18 40q106 93 205 93q37 0 72.5 -9.5z" />
    <glyph glyph-name="hungarumlaut" unicode="&#x2dd;" 
d="M836.5 1332q17.5 -17 17.5 -33q0 -15 -15 -25l-298 -208q-16 -12 -40 -12q-25 0 -48 13q-24 14 -24 34q0 14 9 24l198 243q17 22 55 22q39 0 91 -24q37 -17 54.5 -34zM1266.5 1332q17.5 -17 17.5 -33q0 -15 -15 -25l-298 -208q-16 -12 -40 -12q-25 0 -48 13
q-24 14 -24 34q0 14 9 24l198 243q17 22 55 22q39 0 91 -24q37 -17 54.5 -34z" />
    <glyph glyph-name="uni0326" unicode="&#x326;" horiz-adv-x="0" 
d="M-566 -164q0 -12 -9 -25l-209 -313q-29 -43 -99 -43q-29 0 -43.5 9t-14.5 29q0 9 3 21l88 313q4 12 15 19.5t26 7.5h222q21 0 21 -18z" />
    <glyph glyph-name="uni0394" unicode="&#x394;" 
d="M861 1194q32 -15 37 -50l137 -975q1 -5 1 -15q0 -19 -6 -52q-8 -42 -18 -64t-24 -30t-38 -8h-812q-27 0 -39.5 11t-12.5 40q0 20 6 51q9 45 19 67l485 975q18 36 55.5 50.5t108.5 14.5q69 0 101 -15zM701 852l-297 -627h373l-72 627h-4z" />
    <glyph glyph-name="uni03A9" unicode="&#x3a9;" 
d="M992.5 1154q108.5 -55 166 -158.5t57.5 -245.5q0 -155 -64 -281t-213 -234h155q26 0 37.5 -12t11.5 -45q0 -23 -6 -61q-8 -47 -19 -72.5t-26 -35t-39 -9.5h-372q-24 0 -35 13t-11 48t10 92q9 52 19 76t29 35q254 152 254 466q0 252 -235 252q-168 0 -259 -126
q-43 -60 -65 -144t-22 -167q0 -94 29.5 -162.5t93.5 -118.5q16 -12 16 -43q0 -22 -8 -68q-11 -62 -23 -95t-27.5 -45.5t-39.5 -12.5h-368q-26 0 -37.5 12t-11.5 42q0 27 7 63q12 69 30 93.5t53 24.5h171q-69 67 -107 157t-38 194q0 90 30.5 193t91.5 189q84 116 215 178.5
t291 62.5q150 0 258.5 -55z" />
    </font>
</defs>
</svg>
